Классический форум-трекер
canvas not supported
Нас вместе: 4 151 176

Yasuke | Ясукэ [2021, ONA, 6 из 6] WEB-DL 1080p raw


 
 
RSS
Начать новую тему   Ответить на тему    Торрент-трекер NNM-Club -> Аниме с субтитрами -> Аниме (FullHD)
Автор Сообщение
хИНАРИх ®
Uploader 100+
Стаж: 4 года 4 мес.
Сообщений: 490
Ratio: 14K
Раздал: 209.3 TB
Поблагодарили: 9197
100%
roody.gif
Yasuke | Ясукэ
Жанр: Приключения, фэнтези
Тип: ONA [Original net animation]
Количество серий: 6 из 6
Продолжительность: 6 серий по 30 минут
Период выхода: с 29.04.2021
Производство: MAPPA
Режиссер: Лешон Томас и Такэси Сато
Сценарий: Лешон Томас, Алекс Ларсен и Ник Джонс мл.
Ссылки: World-Art, Ani-DB, Shikimori
Описание: Простой лодочник, прежде известный под прозвищем Черный самурай, берет под крыло девочку с загадочными способностями, и ему приходится снова выйти на тропу войны. © Netflix
Качество видео: WEB-DL
Видео: AVC, 8 bit, 1920x1080, ~2469 Kb/s
Аудио: E-AC-3, 6 ch, 48 KHz, 640 Kb/s | Звук: Японский
Аудио: E-AC-3, 6 ch, 48 KHz, 640 Kb/s | Звук: Английский
Субтитры: Русские
Перевод от: [Netflix]
General
Complete name : Yasuke.S01E01.Ronin.1080p.mkv
Format : Matroska
Format version : Version 4
File size : 817 MiB
Duration : 30 min 28 s
Overall bit rate mode : Variable
Overall bit rate : 3 751 kb/s
Encoded date : UTC 2021-05-04 04:38:49
Writing application : mkvmerge v56.1.0 ('My Friend') 64-bit
Writing library : libebml v1.4.2 + libmatroska v1.6.4

Video
ID : 1
Format : AVC
Format/Info : Advanced Video Codec
Format profile : [email protected]
Format settings : CABAC / 3 Ref Frames
Format settings, CABAC : Yes
Format settings, Reference : 3 frames
Codec ID : V_MPEG4/ISO/AVC
Duration : 30 min 28 s
Bit rate mode : Variable
Bit rate : 2 469 kb/s
Nominal bit rate : 3 277 kb/s
Maximum bit rate : 5 745 kb/s
Width : 1 920 pixels
Height : 1 080 pixels
Display aspect ratio : 16:9
Frame rate mode : Constant
Frame rate : 23.976 (24000/1001) FPS
Color space : YUV
Chroma subsampling : 4:2:0
Bit depth : 8 bits
Scan type : Progressive
Bits/(Pixel*Frame) : 0.050
Stream size : 538 MiB (66%)
Writing library : x264 core 148 r2722 1b0121b
Encoding settings : cabac=1 / ref=3 / deblock=1:0:0 / analyse=0x1:0x111 / me=umh / subme=10 / psy=1 / psy_rd=1.00:0.00 / mixed_ref=1 / me_range=24 / chroma_me=1 / trellis=2 / 8x8dct=0 / cqm=0 / deadzone=21,11 / fast_pskip=1 / chroma_qp_offset=-2 / threads=8 / lookahead_threads=1 / sliced_threads=0 / nr=0 / decimate=1 / interlaced=0 / bluray_compat=0 / stitchable=1 / constrained_intra=0 / bframes=2 / b_pyramid=0 / b_adapt=2 / b_bias=0 / direct=3 / weightb=1 / open_gop=0 / weightp=2 / keyint=250 / keyint_min=23 / scenecut=0 / intra_refresh=0 / rc_lookahead=48 / rc=2pass / mbtree=1 / bitrate=3277 / ratetol=1.0 / qcomp=0.50 / qpmin=6 / qpmax=51 / qpstep=4 / cplxblur=20.0 / qblur=0.5 / vbv_maxrate=5745 / vbv_bufsize=7660 / nal_hrd=vbr / filler=0 / ip_ratio=1.40 / aq=1:1.00
Default : Yes
Forced : No

Audio #1
ID : 2
Format : E-AC-3
Format/Info : Enhanced AC-3
Commercial name : Dolby Digital Plus
Codec ID : A_EAC3
Duration : 30 min 28 s
Bit rate mode : Constant
Bit rate : 640 kb/s
Channel(s) : 6 channels
Channel layout : L R C LFE Ls Rs
Sampling rate : 48.0 kHz
Frame rate : 31.250 FPS (1536 SPF)
Compression mode : Lossy
Stream size : 139 MiB (17%)
Language : Japanese
Service kind : Complete Main
Default : Yes
Forced : No

Audio #2
ID : 3
Format : E-AC-3
Format/Info : Enhanced AC-3
Commercial name : Dolby Digital Plus
Codec ID : A_EAC3
Duration : 30 min 28 s
Bit rate mode : Constant
Bit rate : 640 kb/s
Channel(s) : 6 channels
Channel layout : L R C LFE Ls Rs
Sampling rate : 48.0 kHz
Frame rate : 31.250 FPS (1536 SPF)
Compression mode : Lossy
Stream size : 139 MiB (17%)
Language : English
Service kind : Complete Main
Default : No
Forced : No

Text
ID : 4
Format : UTF-8
Codec ID : S_TEXT/UTF8
Codec ID/Info : UTF-8 Plain Text
Duration : 29 min 21 s
Bit rate : 68 b/s
Count of elements : 305
Stream size : 14.7 KiB (0%)
Language : Russian
Default : No
Forced : No
01. Ронин
02. Старый уклад
03. Смертные грехи
04. Долгая дорога
05. Боль и кровь
06. Равновесие



Время раздачи: круглосуточно
[nn.iss.one]_Yasuke -- [YAsukye].torrent
 Торрент:   Зарегистрирован
 
Зарегистрируйтесь и скачайте торрент!
25.6 KB
Free Leech
Примагнититься
 Зарегистрирован:   04 Май 2021 07:46:24
 Размер:   5.02 GB  (
 Рейтинг:    (Голосов: 4)
 Поблагодарили:   23
 Проверка:   Оформление проверено модератором 06 Май 2021 02:09:50
Как cкачать  ·  Как раздать  ·  Правильно оформить  ·  Поднять ратио!  
bahron
Стаж: 10 лет 5 мес.
Сообщений: 1807
Ratio: 19.185
100%
russia.gif
Они его специально переводить не стали?
Gepardus
Стаж: 10 лет 3 мес.
Сообщений: 674
Ratio: 3.007
100%
japan.gif
Чего его переводить? Три с половиной бытовые фразы.
bahron
Стаж: 10 лет 5 мес.
Сообщений: 1807
Ratio: 19.185
100%
russia.gif
Gepardus конечно, как и всё ониме.
Показать сообщения:   
Начать новую тему   Ответить на тему    Торрент-трекер NNM-Club -> Аниме с субтитрами -> Аниме (FullHD) Часовой пояс: GMT + 3
Страница 1 из 1