Классический форум-трекер
canvas not supported
Нас вместе: 4 151 196

Ghost Hunt | Охота на привидений [2006, TV, 25 из 25] DVDRip 720p 10-bit raw


 
 
RSS
Начать новую тему   Ответить на тему    Торрент-трекер NNM-Club -> Аниме с субтитрами -> Аниме (HD)
Автор Сообщение
хИНАРИх ®
Uploader 100+
Стаж: 4 года 4 мес.
Сообщений: 490
Ratio: 14K
Раздал: 209.3 TB
Поблагодарили: 9197
100%
roody.gif
Ghost Hunt | Охота на привидений
Жанр: Детектив, мистика, драма, сёдзё
Тип: TВ-сериал
Количество серий: 25 из 25
Продолжительность: 25 серий по 24 минуты
Период выхода: с 04.10.2006 по 28.03.2007
Производство: J.C. Staff
Режиссер: Мано Акира
Снято по манге: Ghost Hunt
Автор оригинала: Оно Фуюми
Ссылки: World-Art, Ani-DB, Shikimori
Описание: Май Танияма и ее одноклассницы обожают рассказывать страшные истории про привидения, благо сюжетов и тем им искать не приходится: напротив их школы стоит старый деревянный корпус, который всё собираются (и всё не могут!) снести. Это здание пользуется такой дурной славой, что директор принял решение обратиться за помощью к экзорцистам. Причем, чтобы уж наверняка сработало, вызвал специалистов всех мастей: и католического священника, и синтоистскую жрицу,и буддийского монаха, и медиума, и знатока «психогенных» воздействий...
© Анастасия Розанова, World Art
Качество видео: DVDRip
Видео: AVC, 10 bit, 1280x720, ~4312 Kb/s
Аудио: AC-3, 2ch, 48 KHz, 448 Kb/s | Звук: Японский
Субтитры: Русские
Перевод от: [skvoz'NiAK, Ursuladog & Vik Pol]
General
Complete name : Ghost Hunt - 01 [DVDRip 1280x720 x264 AC3].mkv
Format : Matroska
Format version : Version 4
File size : 815 MiB
Duration : 23 min 56 s
Overall bit rate : 4 763 kb/s
Encoded date : UTC 2017-02-26 03:04:01
Writing application : mkvmerge v9.9.0 ('Pick Up') 64bit
Writing library : libebml v1.3.4 + libmatroska v1.4.5

Video
ID : 1
Format : AVC
Format/Info : Advanced Video Codec
Format profile : High [email protected]
Format settings : CABAC / 9 Ref Frames
Format settings, CABAC : Yes
Format settings, Reference : 9 frames
Codec ID : V_MPEG4/ISO/AVC
Duration : 23 min 56 s
Bit rate : 4 312 kb/s
Width : 1 280 pixels
Height : 720 pixels
Display aspect ratio : 16:9
Frame rate mode : Variable
Frame rate : 24.608 FPS
Original frame rate : 24.607 FPS
Color space : YUV
Chroma subsampling : 4:2:0
Bit depth : 10 bits
Scan type : Progressive
Bits/(Pixel*Frame) : 0.190
Stream size : 738 MiB (91%)
Writing library : x264 core 148 r2744kMod b97ae06
Encoding settings : cabac=1 / ref=9 / deblock=1:-2:-2 / analyse=0x3:0x133 / me=umh / subme=10 / psy=1 / fade_compensate=0.00 / psy_rd=0.70:0.00 / mixed_ref=1 / me_range=24 / chroma_me=1 / trellis=2 / 8x8dct=1 / cqm=0 / deadzone=21,11 / fast_pskip=0 / chroma_qp_offset=-2 / threads=6 / lookahead_threads=1 / sliced_threads=0 / nr=0 / decimate=0 / interlaced=0 / bluray_compat=0 / constrained_intra=0 / bframes=8 / b_pyramid=2 / b_adapt=2 / b_bias=0 / direct=1 / weightb=1 / open_gop=0 / weightp=2 / keyint=250 / keyint_min=24 / scenecut=40 / intra_refresh=0 / rc=crf / mbtree=0 / crf=17.0000 / qcomp=0.60 / qpmin=0 / qpmax=81 / qpstep=4 / ip_ratio=1.40 / pb_ratio=1.30 / aq=1:1.00
Language : Japanese
Default : Yes
Forced : No
Color range : Limited
Color primaries : BT.709
Transfer characteristics : BT.709
Matrix coefficients : BT.709

Audio
ID : 2
Format : AC-3
Format/Info : Audio Coding 3
Commercial name : Dolby Digital
Codec ID : A_AC3
Duration : 23 min 56 s
Bit rate mode : Constant
Bit rate : 448 kb/s
Channel(s) : 2 channels
Channel layout : L R
Sampling rate : 48.0 kHz
Frame rate : 31.250 FPS (1536 SPF)
Compression mode : Lossy
Stream size : 76.7 MiB (9%)
Title : Stereo
Language : Japanese
Service kind : Complete Main
Default : Yes
Forced : No

Menu
00:00:00.000 : en:Chapter 01
00:03:22.969 : en:Chapter 02
00:04:53.026 : en:Chapter 03
00:10:24.090 : en:Chapter 04
00:22:10.028 : en:Chapter 05
01. Evil Spirits Everywhere?! (Part 1)
02. Evil Spirits Everywhere?! (Part 2)
03. Evil Spirits Everywhere?! (Part 3)
04. Dollhouse (Part 1)
05. Dollhouse (Part 2)
06. Dollhouse (Part 3)
07. Cursed Person After School (Part 1)
08. Cursed Person After School (Part 2)
09. Cursed Person After School (Part 3)
10. Cursed Person After School (Part 4)
11. The Park's Ghost Story!?
12. Silent Christmas (Part 1)
13. Silent Christmas (Part 2)
14. Prohibited Play (Part 1)
15. Prohibited Play (Part 2)
16. Prohibited Play (Part 3)
17. Prohibited Play (Part 4)
18. Blood-Smeared Labyrinth (Part 1)
19. Blood-Smeared Labyrinth (Part 2)
20. Blood-smeared Labyrinth (Part 3)
21. Blood-smeared Labyrinth (Part 4)
22. Cursed House (Part 1)
23. Cursed House (Part 2)
24. Cursed House (Part 3)
25. Cursed House (Part 4)



Время раздачи: круглосуточно
[nn.iss.one]_Ghost Hunt -- [Ohota na privideniy].torrent
 Торрент:   Зарегистрирован
 
Зарегистрируйтесь и скачайте торрент!
104 KB
Free Leech
Примагнититься
 Зарегистрирован:   03 Май 2021 11:34:11
 Размер:   20.1 GB  (
 Рейтинг:    (Голосов: 3)
 Поблагодарили:   11
 Проверка:   Оформление проверено модератором 06 Май 2021 03:04:21
Как cкачать  ·  Как раздать  ·  Правильно оформить  ·  Поднять ратио!  
хИНАРИх ®
Uploader 100+
Стаж: 4 года 4 мес.
Сообщений: 490
Ratio: 14K
Раздал: 209.3 TB
Поблагодарили: 9197
100%
roody.gif
Отличия от Ghost Hunt / Охота на привидений [2006, TV, 25] RAW

https://screenshotcomparison.com/comparison/13568

https://screenshotcomparison.com/comparison/13569

https://screenshotcomparison.com/comparison/13571

https://screenshotcomparison.com/comparison/13572
Показать сообщения:   
Начать новую тему   Ответить на тему    Торрент-трекер NNM-Club -> Аниме с субтитрами -> Аниме (HD) Часовой пояс: GMT + 3
Страница 1 из 1