Классический форум-трекер
canvas not supported
Нас вместе: 4 151 196

Ultraman | Ультрамен [2019, Web, 13 из 13] WEBRip 1080p HEVC 10-bit raw


 
 
RSS
Начать новую тему   Ответить на тему    Торрент-трекер NNM-Club -> Аниме с субтитрами -> Аниме (FullHD)
Автор Сообщение
хИНАРИх ®
Uploader 100+
Стаж: 4 года 4 мес.
Сообщений: 490
Ratio: 14K
Раздал: 209.3 TB
Поблагодарили: 9197
100%
roody.gif
Ultraman | Ультрамен
Жанр: Приключения, фантастика
Тип: ONA [Original net animation]
Количество серий: 13 из 13
Продолжительность: 13 серий по 24 минуты
Период выхода: 01.04.2019
Производство: Production I.G и Sola Digital Arts
Режиссер: Камияма Кэндзи
Снято по манге: Ультрамен
Автор оригинала: Симидзу Эйити
Ссылки: World-Art, Ani-DB, Shikimori
Описание: Синдзиро Хаята не просто от природы обладает особыми силами, он ещё и сын Сина — человека, ставшего первым в истории Ультраменом. Вот только узнаёт об этом Синдзиро только тогда, когда на него нападают неизвестные враги. От злодеев Синдзиро спасает Ультрамен, а потом снимает маску, чтобы рассказать, что на самом деле он его отец. У Синдзиро нет выбора — он надевает костюм, изготовленный бывшим членом СНПО (Специальный Научный Поисковый Отряд) господином Идэ, и решает помогать отцу. С этого момента и начинается настоящая битва.
Качество видео: WEBRip
Видео: HEVC, 10 bit, 1920x1080, ~4216 Kb/s
Аудио: AC-3, 6 ch, 48 KHz, 384 Kb/s | Звук: Японский
Аудио: E-AC-3, 2ch, 48 KHz, 128 Kb/s | Звук: Японский
Субтитры: Русские, Английские
Перевод от: [Netflix]
General
Complete name : [Erai-raws] Ultraman - 01 [1080p][Multiple Subtitle].mkv
Format : Matroska
Format version : Version 4
File size : 785 MiB
Duration : 23 min 10 s
Overall bit rate : 4 733 kb/s
Encoded date : UTC 2019-04-01 09:34:15
Writing application : mkvmerge v32.0.0 ('Astral Progressions') 64-bit
Writing library : libebml v1.3.7 + libmatroska v1.5.0

Video
ID : 1
Format : HEVC
Format/Info : High Efficiency Video Coding
Format profile : Main [email protected]@Main
Codec ID : V_MPEGH/ISO/HEVC
Duration : 23 min 10 s
Bit rate : 4 216 kb/s
Width : 1 920 pixels
Height : 1 080 pixels
Display aspect ratio : 16:9
Frame rate mode : Constant
Frame rate : 24.000 FPS
Color space : YUV
Chroma subsampling : 4:2:0
Bit depth : 10 bits
Bits/(Pixel*Frame) : 0.085
Stream size : 699 MiB (89%)
Language : Japanese
Default : Yes
Forced : No
Color range : Limited
Color primaries : BT.709
Transfer characteristics : BT.709
Matrix coefficients : BT.709

Audio #1
ID : 2
Format : AC-3
Format/Info : Audio Coding 3
Commercial name : Dolby Digital
Codec ID : A_AC3
Duration : 23 min 10 s
Bit rate mode : Constant
Bit rate : 384 kb/s
Channel(s) : 6 channels
Channel layout : L R C LFE Ls Rs
Sampling rate : 48.0 kHz
Frame rate : 31.250 FPS (1536 SPF)
Compression mode : Lossy
Stream size : 63.7 MiB (8%)
Language : Japanese
Service kind : Complete Main
Default : Yes
Forced : No

Audio #2
ID : 3
Format : E-AC-3
Format/Info : Enhanced AC-3
Commercial name : Dolby Digital Plus
Codec ID : A_EAC3
Duration : 23 min 10 s
Bit rate mode : Constant
Bit rate : 128 kb/s
Channel(s) : 2 channels
Channel layout : L R
Sampling rate : 48.0 kHz
Frame rate : 31.250 FPS (1536 SPF)
Compression mode : Lossy
Stream size : 21.2 MiB (3%)
Language : Japanese
Service kind : Complete Main
Default : No
Forced : No

Text #1
ID : 4
Format : ASS
Codec ID : S_TEXT/ASS
Codec ID/Info : Advanced Sub Station Alpha
Duration : 22 min 33 s
Bit rate : 76 b/s
Count of elements : 247
Compression mode : Lossless
Stream size : 12.6 KiB (0%)
Language : English
Default : Yes
Forced : No

Text #2
ID : 5
Format : ASS
Codec ID : S_TEXT/ASS
Codec ID/Info : Advanced Sub Station Alpha
Duration : 22 min 27 s
Bit rate : 98 b/s
Count of elements : 251
Compression mode : Lossless
Stream size : 16.3 KiB (0%)
Language : Arabic
Default : No
Forced : No

Text #3
ID : 6
Format : ASS
Codec ID : S_TEXT/ASS
Codec ID/Info : Advanced Sub Station Alpha
Duration : 22 min 27 s
Bit rate : 99 b/s
Count of elements : 250
Compression mode : Lossless
Stream size : 16.4 KiB (0%)
Language : Russian
Default : No
Forced : No

Text #4
ID : 7
Format : ASS
Codec ID : S_TEXT/ASS
Codec ID/Info : Advanced Sub Station Alpha
Duration : 22 min 27 s
Bit rate : 74 b/s
Count of elements : 250
Compression mode : Lossless
Stream size : 12.3 KiB (0%)
Language : Spanish
Default : No
Forced : No

Text #5
ID : 8
Format : ASS
Codec ID : S_TEXT/ASS
Codec ID/Info : Advanced Sub Station Alpha
Duration : 22 min 27 s
Bit rate : 77 b/s
Count of elements : 251
Compression mode : Lossless
Stream size : 12.7 KiB (0%)
Language : Spanish
Default : No
Forced : No

Text #6
ID : 9
Format : ASS
Codec ID : S_TEXT/ASS
Codec ID/Info : Advanced Sub Station Alpha
Duration : 22 min 27 s
Bit rate : 75 b/s
Count of elements : 251
Compression mode : Lossless
Stream size : 12.5 KiB (0%)
Language : Portuguese
Default : No
Forced : No

Text #7
ID : 10
Format : ASS
Codec ID : S_TEXT/ASS
Codec ID/Info : Advanced Sub Station Alpha
Duration : 22 min 27 s
Bit rate : 76 b/s
Count of elements : 250
Compression mode : Lossless
Stream size : 12.6 KiB (0%)
Language : Portuguese
Default : No
Forced : No

Text #8
ID : 11
Format : ASS
Codec ID : S_TEXT/ASS
Codec ID/Info : Advanced Sub Station Alpha
Duration : 22 min 27 s
Bit rate : 80 b/s
Count of elements : 250
Compression mode : Lossless
Stream size : 13.2 KiB (0%)
Language : German
Default : No
Forced : No

Text #9
ID : 12
Format : ASS
Codec ID : S_TEXT/ASS
Codec ID/Info : Advanced Sub Station Alpha
Duration : 22 min 27 s
Bit rate : 77 b/s
Count of elements : 250
Compression mode : Lossless
Stream size : 12.8 KiB (0%)
Language : French
Default : No
Forced : No

Text #10
ID : 13
Format : ASS
Codec ID : S_TEXT/ASS
Codec ID/Info : Advanced Sub Station Alpha
Duration : 22 min 27 s
Bit rate : 77 b/s
Count of elements : 250
Compression mode : Lossless
Stream size : 12.8 KiB (0%)
Language : Italian
Default : No
Forced : No

Text #11
ID : 14
Format : ASS
Codec ID : S_TEXT/ASS
Codec ID/Info : Advanced Sub Station Alpha
Duration : 22 min 27 s
Bit rate : 71 b/s
Count of elements : 245
Compression mode : Lossless
Stream size : 11.7 KiB (0%)
Language : Polish
Default : No
Forced : No

Text #12
ID : 15
Format : ASS
Codec ID : S_TEXT/ASS
Codec ID/Info : Advanced Sub Station Alpha
Duration : 22 min 27 s
Bit rate : 78 b/s
Count of elements : 250
Compression mode : Lossless
Stream size : 12.9 KiB (0%)
Language : Dutch
Default : No
Forced : No

Text #13
ID : 16
Format : ASS
Codec ID : S_TEXT/ASS
Codec ID/Info : Advanced Sub Station Alpha
Duration : 22 min 27 s
Bit rate : 76 b/s
Count of elements : 250
Compression mode : Lossless
Stream size : 12.6 KiB (0%)
Language : Norwegian Bokmal
Default : No
Forced : No

Text #14
ID : 17
Format : ASS
Codec ID : S_TEXT/ASS
Codec ID/Info : Advanced Sub Station Alpha
Duration : 22 min 27 s
Bit rate : 80 b/s
Count of elements : 250
Compression mode : Lossless
Stream size : 13.3 KiB (0%)
Language : Finnish
Default : No
Forced : No

Text #15
ID : 18
Format : ASS
Codec ID : S_TEXT/ASS
Codec ID/Info : Advanced Sub Station Alpha
Duration : 22 min 27 s
Bit rate : 76 b/s
Count of elements : 250
Compression mode : Lossless
Stream size : 12.6 KiB (0%)
Language : Turkish
Default : No
Forced : No

Text #16
ID : 19
Format : ASS
Codec ID : S_TEXT/ASS
Codec ID/Info : Advanced Sub Station Alpha
Duration : 22 min 27 s
Bit rate : 77 b/s
Count of elements : 250
Compression mode : Lossless
Stream size : 12.7 KiB (0%)
Language : Swedish
Default : No
Forced : No

Text #17
ID : 20
Format : ASS
Codec ID : S_TEXT/ASS
Codec ID/Info : Advanced Sub Station Alpha
Duration : 22 min 27 s
Bit rate : 108 b/s
Count of elements : 251
Compression mode : Lossless
Stream size : 17.8 KiB (0%)
Language : Greek
Default : No
Forced : No

Text #18
ID : 21
Format : ASS
Codec ID : S_TEXT/ASS
Codec ID/Info : Advanced Sub Station Alpha
Duration : 22 min 27 s
Bit rate : 92 b/s
Count of elements : 251
Compression mode : Lossless
Stream size : 15.1 KiB (0%)
Language : Hebrew
Default : No
Forced : No

Text #19
ID : 22
Format : ASS
Codec ID : S_TEXT/ASS
Codec ID/Info : Advanced Sub Station Alpha
Duration : 22 min 27 s
Bit rate : 83 b/s
Count of elements : 250
Compression mode : Lossless
Stream size : 13.7 KiB (0%)
Language : rom
Default : No
Forced : No

Text #20
ID : 23
Format : ASS
Codec ID : S_TEXT/ASS
Codec ID/Info : Advanced Sub Station Alpha
Duration : 22 min 27 s
Bit rate : 73 b/s
Count of elements : 250
Compression mode : Lossless
Stream size : 12.1 KiB (0%)
Language : Indonesian
Default : No
Forced : No

Text #21
ID : 24
Format : ASS
Codec ID : S_TEXT/ASS
Codec ID/Info : Advanced Sub Station Alpha
Duration : 22 min 27 s
Bit rate : 149 b/s
Count of elements : 251
Compression mode : Lossless
Stream size : 24.6 KiB (0%)
Language : Thai
Default : No
Forced : No

Text #22
ID : 25
Format : ASS
Codec ID : S_TEXT/ASS
Codec ID/Info : Advanced Sub Station Alpha
Duration : 22 min 33 s
Bit rate : 86 b/s
Count of elements : 252
Compression mode : Lossless
Stream size : 14.3 KiB (0%)
Language : Korean
Default : No
Forced : No

Text #23
ID : 26
Format : ASS
Codec ID : S_TEXT/ASS
Codec ID/Info : Advanced Sub Station Alpha
Duration : 22 min 27 s
Bit rate : 77 b/s
Count of elements : 249
Compression mode : Lossless
Stream size : 12.7 KiB (0%)
Language : Danish
Default : No
Forced : No

Text #24
ID : 27
Format : ASS
Codec ID : S_TEXT/ASS
Codec ID/Info : Advanced Sub Station Alpha
Duration : 22 min 27 s
Bit rate : 121 b/s
Count of elements : 326
Compression mode : Lossless
Stream size : 20.0 KiB (0%)
Language : Japanese
Default : No
Forced : No

Text #25
ID : 28
Format : ASS
Codec ID : S_TEXT/ASS
Codec ID/Info : Advanced Sub Station Alpha
Duration : 22 min 32 s
Bit rate : 78 b/s
Count of elements : 248
Compression mode : Lossless
Stream size : 13.0 KiB (0%)
Language : Chinese
Default : No
Forced : No

Text #26
ID : 29
Format : ASS
Codec ID : S_TEXT/ASS
Codec ID/Info : Advanced Sub Station Alpha
Duration : 22 min 32 s
Bit rate : 80 b/s
Count of elements : 250
Compression mode : Lossless
Stream size : 13.2 KiB (0%)
Language : Chinese
Default : No
Forced : No
01. A Power That Shouldn`t Be on This Earth
02. An Inescapable Fate
03. Being Ultraman Isn`t Bad
04. Release the Limiter!
05. City of Aliens
06. The Curse of Ultraman
07. Hidden Thoughts
08. The Beginning of Truth
09. Nice to Meet You, Brother
10. Star Council
11. You as You Are
12. Ace Killer
13. A Real Ultraman



Время раздачи: круглосуточно
[nn.iss.one]_Ultraman -- [Ul'tramen].torrent
 Торрент:   Зарегистрирован
 
Зарегистрируйтесь и скачайте торрент!
54.1 KB
Free Leech
Примагнититься
 Зарегистрирован:   02 Май 2021 15:52:41
 Размер:   10.6 GB  (
 Рейтинг:    (Голосов: 3)
 Поблагодарили:   22
 Проверка:   Оформление проверено модератором 02 Май 2021 16:53:23
Как cкачать  ·  Как раздать  ·  Правильно оформить  ·  Поднять ратио!  
Показать сообщения:   
Начать новую тему   Ответить на тему    Торрент-трекер NNM-Club -> Аниме с субтитрами -> Аниме (FullHD) Часовой пояс: GMT + 3
Страница 1 из 1