Классический форум-трекер
canvas not supported
Нас вместе: 4 147 110

Первая передача на НТВ. Автомобильная передача (22.02.2021) SATRip


 
 
RSS
Начать новую тему   Ответить на тему    Торрент-трекер NNM-Club -> Документалистика и Телепередачи -> За рулем
Автор Сообщение
Катюша ®
Мне бы в небо!
Стаж: 8 лет 11 мес.
Сообщений: 727
Ratio: 229.899
Поблагодарили: 65528
100%
witch.png
Первая передача на НТВ. Автомобильная передача (22.02.2021) SATRip

Телекомпания: НТВ
Жанр: Автопередача

Ведущий: Алексей Куличков

Описание:
Неверный диагноз: как доказать, что пострадал в ДТП? Боулинг на дороге: дорожный обзор зимних аварий. Коварный желтый: чем различаются мигающий и постоянный режим. Как отменить автоматический штраф без лишних хлопот? Снежный отбойник: правила безопасного перестроения через «накат».

Релиз от: -=FOX=-
Продолжительность: 00:23:08
Качество видео: SATRip

Видео: XviD, 720x400, 1800 Kbps
Аудио: MP3, 1 ch, 128 Kbps

General
Complete name : Pervaya.peredacha.(2021.02.22).SATRip.avi
Format : AVI
Format/Info : Audio Video Interleave
File size : 321 MiB
Duration : 23 min 8 s
Overall bit rate : 1 937 kb/s
Writing application : VirtualDubMod 1.5.10.3 | www.virtualdub-fr.org || (build 2550/release)
Writing library : VirtualDubMod build 2550/release

Video
ID : 0
Format : MPEG-4 Visual
Format profile : Advanced [email protected]
Format settings : BVOP2
Format settings, BVOP : 2
Format settings, QPel : No
Format settings, GMC : No warppoints
Format settings, Matrix : Default (H.263)
Codec ID : XVID
Codec ID/Hint : XviD
Duration : 23 min 8 s
Bit rate : 1 800 kb/s
Width : 720 pixels
Height : 400 pixels
Display aspect ratio : 16:9
Frame rate : 25.000 FPS
Color space : YUV
Chroma subsampling : 4:2:0
Bit depth : 8 bits
Scan type : Progressive
Compression mode : Lossy
Bits/(Pixel*Frame) : 0.250
Stream size : 298 MiB (93%)
Writing library : XviD 1.2.1 (UTC 2008-12-04)

Audio
ID : 1
Format : MPEG Audio
Format version : Version 1
Format profile : Layer 3
Codec ID : 55
Codec ID/Hint : MP3
Duration : 23 min 8 s
Bit rate mode : Constant
Bit rate : 128 kb/s
Channel(s) : 1 channel
Sampling rate : 32.0 kHz
Frame rate : 27.778 FPS (1152 SPF)
Compression mode : Lossy
Stream size : 21.2 MiB (7%)
Alignment : Aligned on interleaves
Interleave, duration : 40 ms (1.00 video frame)
Interleave, preload duratio : 504 ms
Writing library : LAME3.99r
Encoding settings : -m m -V 4 -q 2 -lowpass 16 -b 128

Скриншоты:


Все одноименные релизы в Клубе
Время раздачи: 24/7. До первых 5 скачавших.
[nn.iss.one]_Pervaya.peredacha.(2021.02.22).SATRip.avi.torrent
 Торрент:   Зарегистрирован
 
Зарегистрируйтесь и скачайте торрент!
12.9 KB

Примагнититься
 Зарегистрирован:   22 Фев 2021 09:22:51
 Размер:   321 MB  (
 Рейтинг:   4.6 (Голосов: 10)
 Поблагодарили:   50
 Проверка:   Оформление проверено модератором 22 Фев 2021 09:23:44
Как cкачать  ·  Как раздать  ·  Правильно оформить  ·  Поднять ратио!  

_________________
Мальчики, у кого НДФЛ 15% - пишите!
Показать сообщения:   
Начать новую тему   Ответить на тему    Торрент-трекер NNM-Club -> Документалистика и Телепередачи -> За рулем Часовой пояс: GMT + 3
Страница 1 из 1