Классический форум-трекер
canvas not supported
Нас вместе: 4 136 439

2067: Петля времени / 2067 (2020) BDRip [H.264]


 
 
RSS
Начать новую тему   Ответить на тему    Торрент-трекер NNM-Club -> Горячие новинки -> Зарубежные Новинки (SD)
Автор Сообщение
mikos74 ®
RG NNM Club Video
 
Стаж: 6 лет 2 мес.
Сообщений: 286
Ratio: 113.319
Раздал: 187 TB
Поблагодарили: 21713
100%
Откуда: Усть-Катав
ussr.gif
2067: Петля времени / 2067 (2020) BDRip [H.264]
Производство: Австралия / Arcadia, Elevate Production Finance, Futurism Studios
Жанр: Фантастика, драма

Режиссер: Сет Ларни
Актеры: Коди Смит-Макфи, Райан Квантен, Санаа Шейк, Дебора Мэйлман, Аарон Гленнэйн, Финн Литтл, Энди МакФи, Чекк Мусолино, Мэтт Тестро, Дэмиэн Уолш-Хоулинг

Описание: 2067 год. Люди окончательно загубили экологию и теперь задыхаются - исчезли животные и растения, планета окутана плотными слоями смога. Из-за искусственного кислорода у некоторых развивается неподдающаяся лечению болезнь. Простой техник Итайн Уайт готов на всё, лишь бы помочь больной жене. Неожиданно корпорация, где когда-то работал его отец-физик, получает сообщение из будущего: «Отправьте Итана Уайта». Парень становится последней надеждой человечества.



Возраст: 16+ (зрителям, достигшим 16 лет)
Дата мировой премьеры: 2 октября 2020
Дата российской премьеры: 15 октября 2020, «Capella Film»

Релиз от: mikos

Продолжительность: 01:54:18
Качество видео: BDRip
Перевод: Дублированный (iTunes)
Субтитры: Английские (SDH)

Видео: AVC/H.264, 1024x428, ~2064 kbps, 0.196 b/px, 23.976 fps
Аудио 1: AC3, 6 ch, 384 kbps - Русский (iTunes)
Аудио 2: AC3, 6 ch, 448 kbps - Английский
Скриншоты:


Все одноименные релизы в Клубе

Время раздачи: с 4 до 20 мск (до появления первых 3-5 скачавших)
[nn.iss.one]_2067 2020 .BDRip.AVC.DUB.mikos.mkv.torrent
 Торрент: Платиновая раздача  Зарегистрирован
 
Скачать


Примагнититься
 Зарегистрирован:   15 Ноя 2020 18:23:16
 Размер:   2.52 GB  (
 Рейтинг:   4.2 (Голосов: 26)
 Поблагодарили:   184
 Проверка:   Оформление проверено модератором 15 Ноя 2020 20:37:31
Как cкачать  ·  Как раздать  ·  Правильно оформить  ·  Поднять ратио!  
jagatai
Стаж: 13 лет 4 мес.
Сообщений: 317
Ratio: 9.767
0.45%
"из за искусственного кислорода"у людей болезни....пффф пипец! епттарарай 21 первый век а уровень образования у людей как средние века! такой бред гнать в сценариях и по этим сценариям глядево снимать!"искусственный кислород" ...млин
valerisf
Стаж: 5 мес. 5 дней
Сообщений: 3
Ratio: 0.226
5.08%
belarus.gif
jagatai писал(а): Перейти к сообщению
"из за искусственного кислорода"у людей болезни....пффф пипец! епттарарай 21 первый век а уровень образования у людей как средние века! такой бред гнать в сценариях и по этим сценариям глядево снимать!"искусственный кислород" ...млин
Что не так?
vaubvuds
Стаж: 1 год 8 мес.
Сообщений: 10
Ratio: 2.537
0%
valerisf писал(а): Перейти к сообщению
jagatai писал(а): Перейти к сообщению
"из за искусственного кислорода"у людей болезни....пффф пипец! епттарарай 21 первый век а уровень образования у людей как средние века! такой бред гнать в сценариях и по этим сценариям глядево снимать!"искусственный кислород" ...млин
Что не так?


Наверное сама формулировка в "искусственном кислороде". Кислород он есть или его нет.
Attyru
Стаж: 11 лет 3 мес.
Сообщений: 94
Ratio: 9.149
100%
Откуда: Kazan
russia.gif
vaubvuds писал(а): Перейти к сообщению
valerisf писал(а): Перейти к сообщению
jagatai писал(а): Перейти к сообщению
"из за искусственного кислорода"у людей болезни....пффф пипец! епттарарай 21 первый век а уровень образования у людей как средние века! такой бред гнать в сценариях и по этим сценариям глядево снимать!"искусственный кислород" ...млин
Что не так?


Наверное сама формулировка в "искусственном кислороде". Кислород он есть или его нет.


Я фильм еще не посмотрел, однако, ничего не мешает например гнать кислород из воды и называть его искусственным. Не об этом ли речь?
---
А, ладно, с первых кадров - реактор смешной, как он работает то?). В общем забудьте)
maxim25091984
Стаж: 9 лет 4 мес.
Сообщений: 358
Ratio: 17.213
Поблагодарили: 48964
100%
ussr.gif
Audio #1
ID : 2
Format : AC-3
Format/Info : Audio Coding 3
Commercial name : Dolby Digital
Codec ID : A_AC3
Duration : 1 h 54 min
Bit rate mode : Constant
Bit rate : 448 kb/s
Channel(s) : 6 channels
Channel layout : L R C LFE Ls Rs
Sampling rate : 48.0 kHz
Frame rate : 31.250 FPS (1536 SPF)
Compression mode : Lossy
Stream size : 366 MiB (14%)
Title : iTunes
Language : Russian
Service kind : Complete Main
Default : Yes
Forced : No

Audio #2
ID : 3
Format : AC-3
Format/Info : Audio Coding 3
Commercial name : Dolby Digital
Codec ID : A_AC3
Duration : 1 h 54 min
Bit rate mode : Constant
Bit rate : 640 kb/s
Channel(s) : 6 channels
Channel layout : L R C LFE Ls Rs
Sampling rate : 48.0 kHz
Frame rate : 31.250 FPS (1536 SPF)
Compression mode : Lossy
Stream size : 523 MiB (20%)
Title : Original
Language : English
Service kind : Complete Main
Default : No
Forced : No

_________________
Bodry-Q
Стаж: 5 лет 1 мес.
Сообщений: 77
Ratio: 4.892
Поблагодарили: 13
22.12%
russia.gif
Фантастика
kower345
Стаж: 8 лет 7 мес.
Сообщений: 15
Ratio: 1.44
0%
Люди окончательно загубили экологию. Нам вот именно об этом уже втирают не первый десяток лет. Остальное в кино - эмоции(музыка, экшен) - это для закрепления
weter
 
Стаж: 11 лет 7 мес.
Сообщений: 1011
Ratio: 2.247
100%
Откуда: Ниоткуда
Цитата:
Люди окончательно загубили экологию.

я знаю несколько людей, это точно не они) гадят гады, а не люди, уверяю вас
brenik01
 
Стаж: 10 лет 2 мес.
Сообщений: 14
Ratio: 9.811
0.89%
russia.gif
Ничего хорошего Вас не ждёт
Ensae
Стаж: 7 лет 8 мес.
Сообщений: 132
Ratio: 2.138
2.07%
начало фильма очень хорошее и интригующее, но начиная с середины начинается постоянное нытье ГГ, все становится очевидным и не интересным, сюжет скатывается в никуда, а финал вообще лютое УГ.
Pakatakapons
Стаж: 4 года 3 мес.
Сообщений: 7
Ratio: 4.07
100%
Фильм про нытика, плачущего и рыдающего пол-фильма. Только что мамку не зовёт. Видимо такое сейчас представление о мужчинах-героях, спасающих мир.
Даладно
Стаж: 4 года 7 мес.
Сообщений: 47
Ratio: 0.638
15.38%
jagatai писал(а): Перейти к сообщению
"из за искусственного кислорода"у людей болезни....пффф пипец! епттарарай 21 первый век а уровень образования у людей как средние века! такой бред гнать в сценариях и по этим сценариям глядево снимать!"искусственный кислород" ...млин
Я так понимаю планету захватит Россия. Ибо только в России такое возможно в будущем.)
Показать сообщения:   
Начать новую тему   Ответить на тему    Торрент-трекер NNM-Club -> Горячие новинки -> Зарубежные Новинки (SD) Часовой пояс: GMT + 3
Страница 1 из 1