Классический форум-трекер
canvas not supported
Нас вместе: 4 130 207

Каджиллионер / Kajillionaire (2020) WEB-DL [1080p] ATV [MVO]


 
 
RSS
Начать новую тему   Ответить на тему    Торрент-трекер NNM-Club -> Аудио и Видео -> Зарубежное видео HD для устройств Apple
Автор Сообщение
Весельчак У ®
Модератор Apple
Uploader 100+
Стаж: 6 лет 10 мес.
Сообщений: 7387
Ratio: 175,873
Поблагодарили: 236065
100%
Откуда: От Москвы недалеко...
ussr.gif
Каджиллионер / Kajillionaire (2020) WEB-DL [1080p] ATV
Производство: США / Annapurna Pictures, Plan B Entertainment
Жанр: Драма, криминал

Режиссер: Миранда Джулай
Продюсер: Деде Гарднер, Юри Хенли, Джереми Клейнер
Актеры: Эван Рэйчел Вуд, Дебра Уингер, Джина Родригес, Ричард Дженкинс, Адам Бартли, Диана-Мария Рива, Патриша Белчер, Да Вин Джой Рэндольф, Марк Иванир, Мадлен Когхлан

Описание:
Главную героиню на протяжении последних 26 лет упорно тренируют обманывать, красть и мошенничать, причём её собственные родители. Сами они, понятное дело, промышляют тем же, и дочка становится без преувеличения главной звездой их странной волосатой банды. Но внезапно идеально отлаженный механизм даёт сбой, когда к семейству присоединяется горячая и дико милая незнакомка...



Рейтинг MPAA: R (лицам до 17 лет обязательно присутствие взрослого)
Дата мировой премьеры: 25 января 2020

Релиз от: NNMClub

Продолжительность: 01:44:49
Качество видео: WEB-DL 1080р
Перевод: Любительский многоголосый (AlphaProject)
Субтитры: Английские (вшитые, отключаемые)

Видео: H.264, 1920x1080 (16:9), ~4808 kbps, 23.976 fps
Аудио#1: AAC, 2.0 ch, 192 Kbps - Русский MVO, AlphaProject
Аудио#2: AAC, 2.0 ch, 187 Kbps - English Original
Аудио#3: AC3, 6.0 ch, 384 Kbps - English Original

Общее
Полное имя : /Volumes/HDD/Movies/NNMClub/Kajillionaire.2020.WEB-DL.1080p.NNMClub.m4v
Формат : MPEG-4
Идентификатор кодека : M4V (M4V /M4A /mp42/isom)
Размер файла : 4,08 Гбайт
Продолжительность : 1 ч. 44 м.
Режим общего битрейта : Переменный
Общий поток : 5 576 Кбит/сек
Название фильма : Каджиллионер
Исполнитель : Miranda July
Композитор : Emile Mosseri
Режиссёр : Miranda July
Исполнитель : Evan Rachel Wood / Gina Rodriguez / Debra Winger / Richard Jenkins / Mark Ivanir / Madeleine Coghlan / Steve Park / Challen Cates / Betsy Baker / Da'Vine Joy Randolph / Brandon Morales / Jeffrey Nicholas Brown / Nikki Castillo / Ben Konigsberg / Ethan Josh Lee / Ian Casselberry / Andrew Hawkes / Wylie Small / Tabitha Brownstone / Rachel Redleaf / Jason Catron / Trent Walker / Samantha Cardona / Randy Ryan / Micah Cohen / Rebecca Lee Robertson / Matthew Foster / Michael Twaine / Zena Leigh / Michelle Gillette
Сценарист : Miranda July
Продюсер : Dede Gardner / Jeremy Kleiner / Youree Henley
Исполнительный продюсер : Brad Pitt, Megan Ellison, Jillian Longnecker
Студия-производитель : Plan B Entertainment, Annapurna Pictures, Focus Features
Жанр : криминал, драма
Тип содержимого : Short Film
Описание : Жизнь девушки переворачивается с ног на голову, когда её родители-воры приглашают незнакомку для участия в крупном ограблении.
Дата записи : UTC 2020-09-25 12:00:00
Дата кодирования : UTC 2020-10-18 13:01:43
Дата пометки : UTC 2020-10-18 13:03:50
Обложка : Yes
ContentRating : mpaa|R|400|

Видео
Идентификатор : 1
Формат : AVC
Формат/Информация : Advanced Video Codec
Профиль формата : [email protected]
Настройки формата : CABAC / 2 Ref Frames
Параметр CABAC формата : Да
Параметр RefFrames формата : 2 кадра
Идентификатор кодека : avc1
Идентификатор кодека/Информация : Advanced Video Coding
Продолжительность : 1 ч. 44 м.
Битрейт : 4 808 Кбит/сек
Ширина : 1 920 пикселей
Высота : 1 080 пикселей
Соотношение сторон : 16:9
Режим частоты кадров : Переменный
Частота кадров : 23,976 (24000/1001) кадра/сек
Минимальная частота кадров : 23,810 кадра/сек
Максимальная частота кадров : 24,390 кадра/сек
Цветовое пространство : YUV
Субдискретизация насыщенности : 4:2:0
Битовая глубина : 8 бит
Тип развёртки : Прогрессивная
Бит/(Пиксели*Кадры) : 0.097
Размер потока : 3,52 Гбайт (86%)
Библиотека кодирования : x264 core 155 r2901 7d0ff22
Язык : English
Дата кодирования : UTC 2020-10-18 13:01:43
Дата пометки : UTC 2020-10-18 13:03:49
Цветовой диапазон : Limited
Основные цвета : BT.709
Характеристики трансфера : BT.709
Коэффициенты матрицы : BT.709
Codec configuration box : avcC

Аудио #1
Идентификатор : 2
Формат : AAC LC
Формат/Информация : Advanced Audio Codec Low Complexity
Идентификатор кодека : mp4a-40-2
Продолжительность : 1 ч. 44 м.
Вид битрейта : Переменный
Битрейт : 192 Кбит/сек
Максимальный битрейт : 292 Кбит/сек
Каналы : 2 канала
Channel layout : L R
Частота : 48,0 КГц
Частота кадров : 46,875 кадров/сек (1024 SPF)
Метод сжатия : С потерями
Размер потока : 142 Мбайт (3%)
Язык : Russian
Default : Да
Alternate group : 1
Дата кодирования : UTC 2020-10-18 13:01:43
Дата пометки : UTC 2020-10-18 13:03:49
tagc : public.main-program-content

Аудио #2
Идентификатор : 3
Формат : AAC LC
Формат/Информация : Advanced Audio Codec Low Complexity
Идентификатор кодека : mp4a-40-2
Продолжительность : 1 ч. 44 м.
Вид битрейта : Переменный
Битрейт : 187 Кбит/сек
Максимальный битрейт : 279 Кбит/сек
Каналы : 2 канала
Channel layout : L R
Частота : 48,0 КГц
Частота кадров : 46,875 кадров/сек (1024 SPF)
Метод сжатия : С потерями
Размер потока : 140 Мбайт (3%)
Язык : English
Default : Нет
Alternate group : 1
Дата кодирования : UTC 2020-10-18 13:01:43
Дата пометки : UTC 2020-10-18 13:03:49
Fallback From : 4
tagc : public.main-program-content

Аудио #3
Идентификатор : 4
Формат : AC-3
Формат/Информация : Audio Coding 3
Коммерческое название : Dolby Digital
Идентификатор кодека : ac-3
Продолжительность : 1 ч. 44 м.
Вид битрейта : Постоянный
Битрейт : 384 Кбит/сек
Каналы : 6 каналов
Channel layout : L R C LFE Ls Rs
Частота : 48,0 КГц
Частота кадров : 31,250 кадров/сек (1536 SPF)
Метод сжатия : С потерями
Размер потока : 288 Мбайт (7%)
Язык : English
Service kind : Complete Main
Default : Нет
Alternate group : 1
Дата кодирования : UTC 2020-10-18 13:01:43
Дата пометки : UTC 2020-10-18 13:03:49
Fallback To : 3
tagc : public.main-program-content

Текст
Идентификатор : 5
Формат : Timed Text
Режим смешивания : sbtl
Идентификатор кодека : tx3g
Продолжительность : 1 ч. 37 м.
Вид битрейта : Переменный
Битрейт : 61 бит/сек
Размер потока : 43,5 Кбайт (0%)
Язык : English
Default : Да
Forced : Нет
Alternate group : 2
Дата кодирования : UTC 2020-10-18 13:01:43
Дата пометки : UTC 2020-10-18 13:03:49
tagc : public.main-program-content


Name: Каджиллионер
Artist: Miranda July
Media Kind: Movie
HD Video: 1080р
Genre: криминал, драма
Release Date: 2020-09-25T12:00:00Z
Description: Жизнь девушки переворачивается с ног на голову, когда её родители-воры приглашают незнакомку для участия в крупном ограблении.
Rating: mpaa|R|400|
Studio: Plan B Entertainment, Annapurna Pictures, Focus Features
Cast: Evan Rachel Wood, Gina Rodriguez, Debra Winger, Richard Jenkins, Mark Ivanir, Madeleine Coghlan, Steve Park, Challen Cates, Betsy Baker, Da'Vine Joy Randolph, Brandon Morales, Jeffrey Nicholas Brown, Nikki Castillo, Ben Konigsberg, Ethan Josh Lee, Ian Casselberry, Andrew Hawkes, Wylie Small, Tabitha Brownstone, Rachel Redleaf, Jason Catron, Trent Walker, Samantha Cardona, Randy Ryan, Micah Cohen, Rebecca Lee Robertson, Matthew Foster, Michael Twaine, Zena Leigh, Michelle Gillette
Director: Miranda July
Producers: Dede Gardner, Jeremy Kleiner, Youree Henley
Executive Producer: Brad Pitt, Megan Ellison, Jillian Longnecker
Screenwriters: Miranda July
Composer: Emile Mosseri

Скриншоты:


Все одноименные релизы в Клубе
Время раздачи: 24/7 (до появления первых 3-5 скачавших)

Релиз подготовлен для просмотра на Apple TV, iPad, iPhone, iPod Touch.
Для просмотра данного релиза на компьютере с ОС Windows рекомендуется использовать VLC media player
Kajillionaire.2020.WEB-DL.1080p.NNMClub.m4v.torrent
 Торрент: Платиновая раздача  Зарегистрирован
 
Скачать


Примагнититься
 Зарегистрирован:   18 Окт 2020 16:10:14
 Размер:   4,08 GB  (
 Рейтинг:    (Голосов: 4)
 Поблагодарили:   53
 Проверка:   Оформление проверено модератором 18 Окт 2020 17:08:31
Как cкачать  ·  Как раздать  ·  Правильно оформить  ·  Поднять ратио!  

_________________
«Всё против нас, только ветер навстречу…».
🍏Apple iMac 21.5 (mid 2011) / Intel Core i5 2.7 GHz / AMD Radeon HD 6770M 512 Mb / 12GB DDR3 / Apple Trackpad, Apple Keyboard / macOS High Sierra 10.13.6 (17G13033)
Показать сообщения:   
Начать новую тему   Ответить на тему    Торрент-трекер NNM-Club -> Аудио и Видео -> Зарубежное видео HD для устройств Apple Часовой пояс: GMT + 3
Страница 1 из 1