Классический форум-трекер
canvas not supported
Нас вместе: 4 130 206

Пираты Карибского моря: На странных берегах / Pirates of the Caribbean: On Stranger Tides (2011) WEB-DL [1080p] ATV [Open Matte]


 
 
RSS
Начать новую тему   Ответить на тему    Торрент-трекер NNM-Club -> Аудио и Видео -> Зарубежное видео HD для устройств Apple
Автор Сообщение
Весельчак У ®
Модератор Apple
Uploader 100+
Стаж: 6 лет 10 мес.
Сообщений: 7387
Ratio: 175,873
Поблагодарили: 236060
100%
Откуда: От Москвы недалеко...
ussr.gif
Пираты Карибского моря: На странных берегах / Pirates of the Caribbean: On Stranger Tides (2011) BDRip [1080p] ATV «Live Forever or Die Trying...» [1080p] ATV
Производство: США, Великобритания / Jerry Bruckheimer Films, Walt Disney Pictures
Жанр: Фэнтези, боевик, комедия, приключения

Режиссер: Роб Маршалл
Продюсер: Джерри Брукхаймер, Джон ДеЛюка, Тед Эллиот
Актеры: Джонни Депп, Пенелопа Крус, Джеффри Раш, Иэн МакШейн, Кевин МакНэлли, Стивен Грэм, Сэм Клафлин, Астрид Берже-Фрисби, Кит Ричардс, Ричард Гриффитс

Описание:
В новой истории о поисках истины, предательстве, вечной молодости и смертельной опасности капитану Джеку Воробью предстоит столкнуться с женщиной из своего прошлого Анжеликой. До самого конца не будет понятно, связывает ли их настоящая любовь, или же Анжелика искусно притворяется, чтобы вместе с Джеком добраться до таинственного источника вечной молодости.
Она силой принуждает капитана Джека Воробья взойти на корабль «Месть Королевы Анны», которым управляет коварный злодей Черная Борода. Наш герой оказывается в ситуации, когда он не знает, чего ему бояться больше — ужасного злодея или же свою давнюю подругу.



Возраст: 12+ (зрителям, достигшим 12 лет)
Рейтинг MPAA: PG-13 (детям до 13 лет просмотр нежелателен)

Релиз от: NNMClub

Продолжительность: 02:16:23
Качество видео: WEB-DL 1080р
Язык озвучки: Русский, украинский, английский
Перевод: Дублированный, авторский одноголосый
Субтитры: Русские (forced, 2xfull, SDH), украинские (forced), английские (full, SDH)

Видео: H.264, 1920x1080 (16:9), ~7797 kbps, 23.976 fps
Аудио#1: AAC, 2.0 ch, 198 Kbps - Русский DUB
Аудио#2: AAC, 2.0 ch, 198 Kbps - Русский AVO, А. Гаврилов
Аудио#3: AAC, 2.0 ch, 198 Kbps - Русский AVO, Ю. Сербин
Аудио#4: AAC, 2.0 ch, 198 Kbps - Український DUB
Аудио#5: AAC, 2.0 ch, 198 Kbps - English Original
Аудио#6: AC3, 6.0 ch, 640 Kbps - Русский DUB
Аудио#7: AC3, 6.0 ch, 640 Kbps - Русский AVO, А. Гаврилов
Аудио#8: AC3, 6.0 ch, 640 Kbps - Русский AVO, Ю. Сербин
Аудио#9: AC3, 6.0 ch, 640 Kbps - English Original

Общее
Полное имя : /Volumes/HDD/Pirates.of.the.Caribbean.On.Stranger.Tides.2011.WEB-DL.1080p.NNMClub.m4v
Формат : MPEG-4
Идентификатор кодека : M4V (M4V /M4A /mp42/isom)
Размер файла : 10,8 Гбайт
Продолжительность : 2 ч. 16 м.
Режим общего битрейта : Переменный
Общий поток : 11,4 Мбит/сек
Название фильма : Пираты Карибского моря: На странных берегах
Исполнитель : Rob Marshall
Режиссёр : Rob Marshall
Исполнитель : Johnny Depp / Penélope Cruz / Ian McShane / Kevin McNally / Geoffrey Rush
Сценарист : Ted Elliott / Terry Rossio
Продюсер : Jerry Bruckheimer
Студия-производитель : Walt Disney Pictures
Жанр : Боевики и приключения
Тип содержимого : Short Film
Описание : Капитан Джек Воробей снова в центре невероятной истории о правде и предательстве, юности и бессмертии. Когда Джек неожиданно встречает Анжелику, женщину из своего прошлого, он не понимает – свела ли их вместе любовь, или же его просто используют для поисков вожделенного многими Источника Вечной молодости. Непредсказуемые приключения следуют одно за другим, и когда благодаря интригам Анжелики, Джек Воробей оказывается на борту корабля жестокого пиратского капитана по прозвищу Черная Борода, он уже не знает, кого ему бояться больше – свою давнюю любовь или страшного морского разбойника.
Дата записи : UTC 2011-05-18 07:00:00
Дата кодирования : UTC 2020-10-18 10:21:39
Дата пометки : UTC 2020-10-18 10:35:24
Авторское право : © 2011 Disney
Обложка : Yes
AppleStoreCountry : Russia
AppleStoreCatalogID : 444528746
ContentRating : ru-movie|12+|200|

Видео #1
Идентификатор : 1
Формат : AVC
Формат/Информация : Advanced Video Codec
Профиль формата : [email protected]
Настройки формата : CABAC / 4 Ref Frames
Параметр CABAC формата : Да
Параметр RefFrames формата : 4 кадра
Идентификатор кодека : avc1
Идентификатор кодека/Информация : Advanced Video Coding
Продолжительность : 2 ч. 16 м.
Битрейт : 7 797 Кбит/сек
Ширина : 1 920 пикселей
Высота : 1 080 пикселей
Соотношение сторон : 16:9
Режим частоты кадров : Переменный
Частота кадров : 23,976 (24000/1001) кадра/сек
Минимальная частота кадров : 23,810 кадра/сек
Максимальная частота кадров : 24,390 кадра/сек
Цветовое пространство : YUV
Субдискретизация насыщенности : 4:2:0
Битовая глубина : 8 бит
Тип развёртки : Прогрессивная
Бит/(Пиксели*Кадры) : 0.157
Размер потока : 7,44 Гбайт (69%)
Дата кодирования : UTC 2020-10-18 10:21:39
Дата пометки : UTC 2020-10-18 10:34:58
Цветовой диапазон : Limited
Основные цвета : BT.709
Характеристики трансфера : BT.709
Коэффициенты матрицы : BT.709
Menus : 21,22
Codec configuration box : avcC

Видео #2
Идентификатор : 22
Формат : JPEG
Идентификатор кодека : jpeg
Продолжительность : 2 ч. 16 м.
Вид битрейта : Переменный
Битрейт : 1 308 бит/сек
Ширина : 640 пикселей
Высота : 360 пикселей
Соотношение сторон : 16:9
Режим частоты кадров : Переменный
Частота кадров : 0,004 кадр/сек
Минимальная частота кадров : 0,002 кадр/сек
Максимальная частота кадров : 0,022 кадр/сек
Цветовое пространство : YUV
Субдискретизация насыщенности : 4:2:0
Битовая глубина : 8 бит
Метод сжатия : С потерями
Бит/(Пиксели*Кадры) : 1.419
Размер потока : 1,21 Мбайт (0%)
Default : Нет
Дата кодирования : UTC 2020-10-18 10:35:21
Дата пометки : UTC 2020-10-18 10:35:23
Menu For : 1
ColorSpace_ICC : RGB

Аудио #1
Идентификатор : 2
Формат : AAC LC
Формат/Информация : Advanced Audio Codec Low Complexity
Идентификатор кодека : mp4a-40-2
Продолжительность : 2 ч. 16 м.
Вид битрейта : Переменный
Битрейт : 198 Кбит/сек
Максимальный битрейт : 304 Кбит/сек
Каналы : 2 канала
Channel layout : L R
Частота : 48,0 КГц
Частота кадров : 46,875 кадров/сек (1024 SPF)
Метод сжатия : С потерями
Размер потока : 193 Мбайт (2%)
Язык : Russian
Default : Да
Alternate group : 1
Дата кодирования : UTC 2020-10-18 10:21:39
Дата пометки : UTC 2020-10-18 10:34:58
Fallback From : 7
tagc : public.main-program-content

Аудио #2
Идентификатор : 3
Формат : AAC LC
Формат/Информация : Advanced Audio Codec Low Complexity
Идентификатор кодека : mp4a-40-2
Продолжительность : 2 ч. 16 м.
Вид битрейта : Переменный
Битрейт : 198 Кбит/сек
Максимальный битрейт : 316 Кбит/сек
Каналы : 2 канала
Channel layout : L R
Частота : 48,0 КГц
Частота кадров : 46,875 кадров/сек (1024 SPF)
Метод сжатия : С потерями
Размер потока : 193 Мбайт (2%)
Язык : Russian
Default : Нет
Alternate group : 1
Дата кодирования : UTC 2020-10-18 10:21:39
Дата пометки : UTC 2020-10-18 10:34:58
Fallback From : 8
tagc : public.auxiliary-content

Аудио #3
Идентификатор : 4
Формат : AAC LC
Формат/Информация : Advanced Audio Codec Low Complexity
Идентификатор кодека : mp4a-40-2
Продолжительность : 2 ч. 16 м.
Вид битрейта : Переменный
Битрейт : 198 Кбит/сек
Максимальный битрейт : 297 Кбит/сек
Каналы : 2 канала
Channel layout : L R
Частота : 48,0 КГц
Частота кадров : 46,875 кадров/сек (1024 SPF)
Метод сжатия : С потерями
Размер потока : 193 Мбайт (2%)
Язык : Russian
Default : Нет
Alternate group : 1
Дата кодирования : UTC 2020-10-18 10:21:39
Дата пометки : UTC 2020-10-18 10:34:58
Fallback From : 9
tagc : public.auxiliary-content

Аудио #4
Идентификатор : 5
Формат : AAC LC
Формат/Информация : Advanced Audio Codec Low Complexity
Идентификатор кодека : mp4a-40-2
Продолжительность : 2 ч. 16 м.
Вид битрейта : Переменный
Битрейт : 198 Кбит/сек
Максимальный битрейт : 305 Кбит/сек
Каналы : 2 канала
Channel layout : L R
Частота : 48,0 КГц
Частота кадров : 46,875 кадров/сек (1024 SPF)
Метод сжатия : С потерями
Размер потока : 193 Мбайт (2%)
Язык : Ukrainian
Default : Нет
Alternate group : 1
Дата кодирования : UTC 2020-10-18 10:21:39
Дата пометки : UTC 2020-10-18 10:34:58
tagc : public.main-program-content

Аудио #5
Идентификатор : 6
Формат : AAC LC
Формат/Информация : Advanced Audio Codec Low Complexity
Идентификатор кодека : mp4a-40-2
Продолжительность : 2 ч. 16 м.
Вид битрейта : Переменный
Битрейт : 198 Кбит/сек
Максимальный битрейт : 294 Кбит/сек
Каналы : 2 канала
Channel layout : L R
Частота : 48,0 КГц
Частота кадров : 46,875 кадров/сек (1024 SPF)
Метод сжатия : С потерями
Размер потока : 194 Мбайт (2%)
Язык : English
Default : Нет
Alternate group : 1
Дата кодирования : UTC 2020-10-18 10:21:39
Дата пометки : UTC 2020-10-18 10:34:58
Fallback From : 10
tagc : public.main-program-content

Аудио #6
Идентификатор : 7
Формат : AC-3
Формат/Информация : Audio Coding 3
Коммерческое название : Dolby Digital
Идентификатор кодека : ac-3
Продолжительность : 2 ч. 16 м.
Вид битрейта : Постоянный
Битрейт : 640 Кбит/сек
Каналы : 6 каналов
Channel layout : L R C LFE Ls Rs
Частота : 48,0 КГц
Частота кадров : 31,250 кадров/сек (1536 SPF)
Метод сжатия : С потерями
Размер потока : 625 Мбайт (6%)
Язык : Russian
Service kind : Complete Main
Default : Inherited From: 2
Alternate group : 1
Дата кодирования : UTC 2020-10-18 10:21:39
Дата пометки : UTC 2020-10-18 10:34:58
Fallback To : 2
tagc : public.main-program-content

Аудио #7
Идентификатор : 8
Формат : AC-3
Формат/Информация : Audio Coding 3
Коммерческое название : Dolby Digital
Идентификатор кодека : ac-3
Продолжительность : 2 ч. 16 м.
Вид битрейта : Постоянный
Битрейт : 640 Кбит/сек
Каналы : 6 каналов
Channel layout : L R C LFE Ls Rs
Частота : 48,0 КГц
Частота кадров : 31,250 кадров/сек (1536 SPF)
Метод сжатия : С потерями
Размер потока : 625 Мбайт (6%)
Язык : Russian
Service kind : Complete Main
Default : Нет
Alternate group : 1
Дата кодирования : UTC 2020-10-18 10:21:39
Дата пометки : UTC 2020-10-18 10:34:58
Fallback To : 3
tagc : public.auxiliary-content

Аудио #8
Идентификатор : 9
Формат : AC-3
Формат/Информация : Audio Coding 3
Коммерческое название : Dolby Digital
Идентификатор кодека : ac-3
Продолжительность : 2 ч. 16 м.
Вид битрейта : Постоянный
Битрейт : 640 Кбит/сек
Каналы : 6 каналов
Channel layout : L R C LFE Ls Rs
Частота : 48,0 КГц
Частота кадров : 31,250 кадров/сек (1536 SPF)
Метод сжатия : С потерями
Размер потока : 625 Мбайт (6%)
Язык : Russian
Service kind : Complete Main
Default : Нет
Alternate group : 1
Дата кодирования : UTC 2020-10-18 10:21:39
Дата пометки : UTC 2020-10-18 10:34:58
Fallback To : 4
tagc : public.auxiliary-content

Аудио #9
Идентификатор : 10
Формат : AC-3
Формат/Информация : Audio Coding 3
Коммерческое название : Dolby Digital
Идентификатор кодека : ac-3
Продолжительность : 2 ч. 16 м.
Вид битрейта : Постоянный
Битрейт : 640 Кбит/сек
Каналы : 6 каналов
Channel layout : L R C LFE Ls Rs
Частота : 48,0 КГц
Частота кадров : 31,250 кадров/сек (1536 SPF)
Метод сжатия : С потерями
Размер потока : 625 Мбайт (6%)
Язык : English
Service kind : Complete Main
Default : Нет
Alternate group : 1
Дата кодирования : UTC 2020-10-18 10:21:39
Дата пометки : UTC 2020-10-18 10:34:58
Fallback To : 6
tagc : public.main-program-content

Текст #1
Идентификатор : 11
Формат : Timed Text
Режим смешивания : sbtl
Идентификатор кодека : tx3g
Продолжительность : 2 ч. 8 м.
Вид битрейта : Переменный
Битрейт : 0 бит/сек
Размер потока : 374 байт (0%)
Язык : Russian
Default : Да
Forced : Нет
Alternate group : 2
Дата кодирования : UTC 2020-10-18 10:21:39
Дата пометки : UTC 2020-10-18 10:34:58
tagc : public.subtitles.forced-only

Текст #2
Идентификатор : 12
Формат : Timed Text
Режим смешивания : sbtl
Идентификатор кодека : tx3g
Продолжительность : 2 ч. 8 м.
Вид битрейта : Переменный
Битрейт : 83 бит/сек
Размер потока : 78,6 Кбайт (0%)
Язык : Russian
Default : Нет
Forced : Нет
Alternate group : 2
Дата кодирования : UTC 2020-10-18 10:21:39
Дата пометки : UTC 2020-10-18 10:34:59
tagc : public.main-program-content

Текст #3
Идентификатор : 13
Формат : Timed Text
Режим смешивания : sbtl
Идентификатор кодека : tx3g
Продолжительность : 2 ч. 9 м.
Вид битрейта : Переменный
Битрейт : 187 бит/сек
Размер потока : 177 Кбайт (0%)
Язык : Russian
Default : Нет
Forced : Нет
Alternate group : 2
Дата кодирования : UTC 2020-10-18 10:21:39
Дата пометки : UTC 2020-10-18 10:34:59
tagc : public.auxiliary-content

Текст #4
Идентификатор : 14
Формат : Timed Text
Режим смешивания : sbtl
Идентификатор кодека : tx3g
Продолжительность : 2 ч. 8 м.
Вид битрейта : Переменный
Битрейт : 0 бит/сек
Размер потока : 202 байт (0%)
Язык : Ukrainian
Default : Нет
Forced : Нет
Alternate group : 2
Дата кодирования : UTC 2020-10-18 10:21:39
Дата пометки : UTC 2020-10-18 10:34:58
tagc : public.subtitles.forced-only

Текст #5
Идентификатор : 15
Формат : Timed Text
Режим смешивания : sbtl
Идентификатор кодека : tx3g
Продолжительность : 2 ч. 8 м.
Вид битрейта : Переменный
Битрейт : 73 бит/сек
Размер потока : 68,8 Кбайт (0%)
Язык : Ukrainian
Default : Нет
Forced : Нет
Alternate group : 2
Дата кодирования : UTC 2020-10-18 10:21:39
Дата пометки : UTC 2020-10-18 10:34:59
tagc : public.main-program-content

Текст #6
Идентификатор : 16
Формат : Timed Text
Режим смешивания : sbtl
Идентификатор кодека : tx3g
Продолжительность : 2 ч. 9 м.
Вид битрейта : Переменный
Битрейт : 119 бит/сек
Размер потока : 113 Кбайт (0%)
Язык : Ukrainian
Default : Нет
Forced : Нет
Alternate group : 2
Дата кодирования : UTC 2020-10-18 10:21:39
Дата пометки : UTC 2020-10-18 10:34:59
tagc : public.auxiliary-content

Текст #7
Идентификатор : 17
Формат : Timed Text
Режим смешивания : sbtl
Идентификатор кодека : tx3g
Продолжительность : 2 ч. 7 м.
Вид битрейта : Переменный
Битрейт : 51 бит/сек
Размер потока : 47,7 Кбайт (0%)
Язык : English
Default : Нет
Forced : Нет
Alternate group : 2
Дата кодирования : UTC 2020-10-18 10:21:39
Дата пометки : UTC 2020-10-18 10:34:59
tagc : public.main-program-content

Текст #8
Идентификатор : 18
Формат : Timed Text
Режим смешивания : sbtl
Идентификатор кодека : tx3g
Продолжительность : 2 ч. 16 м.
Вид битрейта : Переменный
Битрейт : 57 бит/сек
Размер потока : 56,7 Кбайт (0%)
Язык : English
Default : Нет
Forced : Нет
Alternate group : 2
Дата кодирования : UTC 2020-10-18 10:21:39
Дата пометки : UTC 2020-10-18 10:34:59
tagc : public.accessibility.transcribes-spoken-dialog

Текст #9
Идентификатор : 19
Формат : Timed Text
Режим смешивания : sbtl
Идентификатор кодека : tx3g
Продолжительность : 2 ч. 16 м.
Вид битрейта : Переменный
Битрейт : 54 бит/сек
Размер потока : 54,0 Кбайт (0%)
Язык : English
Default : Нет
Forced : Нет
Alternate group : 2
Дата кодирования : UTC 2020-10-18 10:21:39
Дата пометки : UTC 2020-10-18 10:34:59
tagc : public.accessibility.transcribes-spoken-dialog

Текст #10
Идентификатор : 20
Формат : Timed Text
Режим смешивания : sbtl
Идентификатор кодека : tx3g
Продолжительность : 2 ч. 9 м.
Вид битрейта : Переменный
Битрейт : 134 бит/сек
Размер потока : 128 Кбайт (0%)
Язык : English
Default : Нет
Forced : Нет
Alternate group : 2
Дата кодирования : UTC 2020-10-18 10:21:39
Дата пометки : UTC 2020-10-18 10:34:59
tagc : public.auxiliary-content

Меню
Идентификатор : 21
Идентификатор кодека : text
Продолжительность : 2 ч. 16 м.
Язык : English
Дата кодирования : UTC 2020-10-18 10:34:59
Дата пометки : UTC 2020-10-18 10:34:59
Menu For : 1
00:00:00.000 : An Unorthodox Catch
00:03:45.450 : On Trial
00:08:58.050 : Royal Visit
00:16:07.350 : Escape
00:18:45.450 : The Captain's Daughter
00:21:26.600 : Stolen Identity
00:30:16.800 : The Queen Anne
00:37:08.050 : Mutiny Most Foul
00:42:16.650 : A Bad Man
00:48:31.300 : The Prophecy
00:53:37.800 : Thick As Thieves
00:55:54.250 : The Truth
00:58:04.149 : Whitecap Bay
01:00:58.770 : God Save Me
01:08:33.500 : A Proper Mermaid
01:11:52.600 : Through The Jungle
01:13:14.450 : Whatever Is Necessary
01:14:28.000 : A Sudden Urge To Jump
01:23:31.270 : No, You
01:27:00.899 : Jungle Pools
01:30:27.750 : Stirrings
01:35:55.000 : An Improvised Escape
01:41:09.200 : A Trade For The Compass
01:43:18.850 : A Dramatic Entrance
01:45:02.900 : Aqua De Vida
01:49:04.900 : One Last Fight
01:57:52.750 : Do Not Waste My Tear
02:02:32.650 : Choosing The Dog
02:06:02.750 : For The Pearl
02:07:38.050 : Credits
02:15:49.450 : Voodoo Doll


Name: Пираты Карибского моря: На странных берегах
Artist: Rob Marshall
Media Kind: Movie
HD Video: 1080р
Genre: Боевики и приключения
Release Date: 2011-05-18T07:00:00Z
Description: Капитан Джек Воробей снова в центре невероятной истории о правде и предательстве, юности и бессмертии. Когда Джек неожиданно встречает Анжелику, женщину из своего прошлого, он не понимает – свела ли их вместе любовь, или же его просто используют для поисков вожделенного многими Источника Вечной молодости. Непредсказуемые приключения следуют одно за другим, и когда благодаря интригам Анжелики, Джек Воробей оказывается на борту корабля жестокого пиратского капитана по прозвищу Черная Борода, он уже не знает, кого ему бояться больше – свою давнюю любовь или страшного морского разбойника.
Rating: ru-movie|12+|200|
Studio: Walt Disney Pictures
Cast: Johnny Depp, Penélope Cruz, Ian McShane, Kevin McNally, Geoffrey Rush
Director: Rob Marshall
Producers: Jerry Bruckheimer
Screenwriters: Ted Elliott, Terry Rossio
Copyright: © 2011 Disney
content ID: 444528746
iTunes Country: 143469

Скриншоты:


Все одноименные релизы в Клубе
Время раздачи: 24/7 (до появления первых 3-5 скачавших)

Релиз подготовлен для просмотра на Apple TV, iPad, iPhone, iPod Touch.
Для просмотра данного релиза на компьютере с ОС Windows рекомендуется использовать VLC media player
Pirates.of.the.Caribbean.On.Stranger.Tides.2011.WEB-DL.1080p.NNMClub.m4v.torrent
 Торрент: Платиновая раздача  Зарегистрирован
 
Скачать


Примагнититься
 Зарегистрирован:   18 Окт 2020 14:59:58
 Размер:   10,8 GB  (
 Рейтинг:    (Голосов: 4)
 Поблагодарили:   30
 Проверка:   Оформление проверено модератором 18 Окт 2020 17:16:57
Как cкачать  ·  Как раздать  ·  Правильно оформить  ·  Поднять ратио!  

_________________
«Всё против нас, только ветер навстречу…».
🍏Apple iMac 21.5 (mid 2011) / Intel Core i5 2.7 GHz / AMD Radeon HD 6770M 512 Mb / 12GB DDR3 / Apple Trackpad, Apple Keyboard / macOS High Sierra 10.13.6 (17G13033)
Весельчак У ®
Модератор Apple
Uploader 100+
Стаж: 6 лет 10 мес.
Сообщений: 7387
Ratio: 175,873
Поблагодарили: 236060
100%
Откуда: От Москвы недалеко...
ussr.gif
Благодарю TeamHD за предоставленный контент

_________________
«Всё против нас, только ветер навстречу…».
🍏Apple iMac 21.5 (mid 2011) / Intel Core i5 2.7 GHz / AMD Radeon HD 6770M 512 Mb / 12GB DDR3 / Apple Trackpad, Apple Keyboard / macOS High Sierra 10.13.6 (17G13033)
frost2020
Стаж: 9 мес. 7 дней
Сообщений: 466
Ratio: 34K
Поблагодарили: 21158
100%
nnm-club.gif
это обрезок 16:9, а не Open Matte
Весельчак У ®
Модератор Apple
Uploader 100+
Стаж: 6 лет 10 мес.
Сообщений: 7387
Ratio: 175,873
Поблагодарили: 236060
100%
Откуда: От Москвы недалеко...
ussr.gif
frost2020 писал(а): Перейти к сообщению
это обрезок 16:9, а не Open Matte

Ну это уж пишите TeamHD от туда релиз, раз такой умный
rost2020
Может покажете где обрезано?

_________________
«Всё против нас, только ветер навстречу…».
🍏Apple iMac 21.5 (mid 2011) / Intel Core i5 2.7 GHz / AMD Radeon HD 6770M 512 Mb / 12GB DDR3 / Apple Trackpad, Apple Keyboard / macOS High Sierra 10.13.6 (17G13033)
frost2020
Стаж: 9 мес. 7 дней
Сообщений: 466
Ratio: 34K
Поблагодарили: 21158
100%
nnm-club.gif
Весельчак У
ну почти обрезок или добавлено мало. короче для любителей без черных полос, которым пофиг что бока обрезаны
Весельчак У ®
Модератор Apple
Uploader 100+
Стаж: 6 лет 10 мес.
Сообщений: 7387
Ratio: 175,873
Поблагодарили: 236060
100%
Откуда: От Москвы недалеко...
ussr.gif
frost2020 писал(а): Перейти к сообщению
Весельчак У
ну почти обрезок

Что значит «почти», может перестанем умничать?

_________________
«Всё против нас, только ветер навстречу…».
🍏Apple iMac 21.5 (mid 2011) / Intel Core i5 2.7 GHz / AMD Radeon HD 6770M 512 Mb / 12GB DDR3 / Apple Trackpad, Apple Keyboard / macOS High Sierra 10.13.6 (17G13033)
Показать сообщения:   
Начать новую тему   Ответить на тему    Торрент-трекер NNM-Club -> Аудио и Видео -> Зарубежное видео HD для устройств Apple Часовой пояс: GMT + 3
Страница 1 из 1