Классический форум-трекер
canvas not supported
Нас вместе: 4 130 972

Грейхаунд / Greyhound (2020) WEB-DL [1080p] ATV


 
 
RSS
Начать новую тему   Ответить на тему    Торрент-трекер NNM-Club -> Аудио и Видео -> Зарубежное видео HD для устройств Apple
Автор Сообщение
Весельчак У ®
Модератор Apple
Uploader 100+
Стаж: 6 лет 10 мес.
Сообщений: 7453
Ratio: 176,479
Поблагодарили: 237796
100%
Откуда: От Москвы недалеко...
ussr.gif
Грейхаунд / Greyhound (2020) WEB-DL [1080p] ATV«The Only Thing More Dangerous Than the Front Lines Was the Fight to Get There»
Производство: США, Китай, Канада / Bron Studios, Columbia Pictures Corporation, Creative Artists Agency (CAA), Creative Wealth Media Finance, Playtone
Жанр: Военный, боевик, история

Режиссер: Аарон Шнайдер
Продюсер: Джейсон Клот, Дэвид Коутсворт, Элисон Коэн
Актеры: Том Хэнкс, Стивен Грэм, Элизабет Шу, Майкл Бенц, Роб Морган, Дэвид Мальдонадо, Джими Стэнтон, Matt Helm, Том Бриттни, Мануэль Рульфо

Описание:
Февраль 1942 года, Северная Атлантика. Морской конвой с войсками и грузами для союзников под патрулированием ВВС США направляется в порт Ливерпуля. Войдя в недосягаемый для авиации сектор, известный как «чёрная яма», судна подвергаются нападению группы немецких подлодок. Капитану головного эсминца «Грейхаунд» Эрнсту Краузе, до этого не принимавшему участия в военных действиях, приходится руководить обороной и отбиваться от так называемой «волчьей стаи».



Рейтинг MPAA: PG-13 (детям до 13 лет просмотр нежелателен)
Дата мировой премьеры: 10 июля 2020

Релиз от: NNMClub

Продолжительность: 01:31:42
Качество видео: WEB-DL 1080р
Перевод: Дублированный, профессиональный многоголосый
Субтитры: Русские (2 x forced, full), украинские (full), английские

Видео: H.264, 1920x802, ~10.1 Mbps, 23.976 fps
Аудио#1: AAC, 2.0 ch, 200 Kbps - Русский DUB
Аудио#2: AAC, 2.0 ch, 199 Kbps - Русский MVO, HDRezka Studio
Аудио#3: AAC, 2.0 ch, 199 Kbps - English Original
Аудио#4: AC3, 6.0 ch, 640 Kbps - Русский DUB
Аудио#5: AC3, 6.0 ch, 448 Kbps - Русский MVO, HDRezka Studio
Аудио#6: AC3, 6.0 ch, 640 Kbps - English Original

Общее
Полное имя : /Volumes/HDD/Movies/NNMClub/Greyhound.2020.WEB-DL.1080p.m4v
Формат : MPEG-4
Идентификатор кодека : M4V (M4V /M4A /mp42/isom)
Размер файла : 7,95 Гбайт
Продолжительность : 1 ч. 31 м.
Режим общего битрейта : Переменный
Общий поток : 12,4 Мбит/сек
Название фильма : Грейхаунд
Исполнитель : Aaron Schneider
Композитор : Blake Neely
Режиссёр : Aaron Schneider
Исполнитель : Tom Hanks / Stephen Graham / Rob Morgan / Josh Wiggins / Tom Brittney / Elisabeth Shue / Will Pullen / Manuel Garcia-Rulfo / Karl Glusman / Chet Hanks / Jimi Stanton / Matt Helm / Devin Druid / Craig Tate / Travis Quentin / Jeff Burkes / Matthew Zuk / Joseph Poliquin / Casey Bond / Michael Benz / Grayson Russell / Ian James Corlett / Maximilian Osinski / Dominic Keating / Dave Davis / Parker Wierling / Ian Pala / Travis Przybylski / Cade Burk / Jesse Gallegos / Alex Kramer / Lee Norris / Adam Aalderks / Keon Motakhaveri / Jake Ventimiglia / Michael Carollo / Caleb J. Thaggard / John Frederick / Jeff Adler / Brandon Holubar / Joel Newsom / Thomas Kretschmann / David Maldonado / Jeremy Madden / Jon Donahue
Сценарист : Tom Hanks / C. S. Forester
Продюсер : Gary Goetzman
Исполнительный продюсер : Aaron Ryder, David Coatsworth, Han Sanping, Michael Jackman, Steven Shareshian, Tom Rice, Aaron L. Gilbert, Ben Nearn, Jason Cloth, Milan Popelka, Richard McConnell, Alison Cohen, Anjay Nagpal, Alex Zhang
Студия-производитель : Playtone, Bron Studios, FilmNation Entertainment, Sycamore Pictures, Columbia Pictures, Sony Pictures
Жанр : военный, боевик, драма
Тип содержимого : Short Film
Описание : В центре сюжета морской офицер Эрнст Краузе, который в разгар Второй мировой войны становится новым капитаном эсминца ВМС США «Грейхаунд», несмотря на то, что до этого он не принимал участия в военных действиях.
Дата записи : UTC 2020-07-10 12:00:00
Дата кодирования : UTC 2020-10-17 19:05:48
Дата пометки : UTC 2020-10-17 19:10:12
Обложка : Yes
ContentRating : mpaa|PG-13|300|

Видео
Идентификатор : 1
Формат : AVC
Формат/Информация : Advanced Video Codec
Профиль формата : [email protected]
Настройки формата : CABAC / 5 Ref Frames
Параметр CABAC формата : Да
Параметр RefFrames формата : 5 кадров
Параметр GOP формата : M=2, N=116
Идентификатор кодека : avc1
Идентификатор кодека/Информация : Advanced Video Coding
Продолжительность : 1 ч. 31 м.
Битрейт : 10,1 Мбит/сек
Ширина : 1 920 пикселей
Высота : 802 пикселя
Соотношение сторон : 2,40:1
Режим частоты кадров : Переменный
Частота кадров : 23,976 (24000/1001) кадра/сек
Минимальная частота кадров : 23,810 кадра/сек
Максимальная частота кадров : 24,390 кадра/сек
Цветовое пространство : YUV
Субдискретизация насыщенности : 4:2:0
Битовая глубина : 8 бит
Тип развёртки : Прогрессивная
Бит/(Пиксели*Кадры) : 0.273
Размер потока : 6,45 Гбайт (81%)
Язык : Russian
Дата кодирования : UTC 2020-10-17 19:05:48
Дата пометки : UTC 2020-10-17 19:10:10
Цветовой диапазон : Limited
Основные цвета : BT.709
Характеристики трансфера : BT.709
Коэффициенты матрицы : BT.709
Codec configuration box : avcC

Аудио #1
Идентификатор : 2
Формат : AAC LC
Формат/Информация : Advanced Audio Codec Low Complexity
Идентификатор кодека : mp4a-40-2
Продолжительность : 1 ч. 31 м.
Вид битрейта : Переменный
Битрейт : 200 Кбит/сек
Максимальный битрейт : 275 Кбит/сек
Каналы : 2 канала
Channel layout : L R
Частота : 48,0 КГц
Частота кадров : 46,875 кадров/сек (1024 SPF)
Метод сжатия : С потерями
Размер потока : 131 Мбайт (2%)
Язык : Russian
Default : Да
Alternate group : 1
Дата кодирования : UTC 2020-10-17 19:05:48
Дата пометки : UTC 2020-10-17 19:10:10
Fallback From : 5
tagc : public.main-program-content

Аудио #2
Идентификатор : 3
Формат : AAC LC
Формат/Информация : Advanced Audio Codec Low Complexity
Идентификатор кодека : mp4a-40-2
Продолжительность : 1 ч. 31 м.
Вид битрейта : Переменный
Битрейт : 199 Кбит/сек
Максимальный битрейт : 282 Кбит/сек
Каналы : 2 канала
Channel layout : L R
Частота : 48,0 КГц
Частота кадров : 46,875 кадров/сек (1024 SPF)
Метод сжатия : С потерями
Размер потока : 131 Мбайт (2%)
Язык : Russian
Default : Нет
Alternate group : 1
Дата кодирования : UTC 2020-10-17 19:05:48
Дата пометки : UTC 2020-10-17 19:10:10
Fallback From : 6
tagc : public.auxiliary-content

Аудио #3
Идентификатор : 4
Формат : AAC LC
Формат/Информация : Advanced Audio Codec Low Complexity
Идентификатор кодека : mp4a-40-2
Продолжительность : 1 ч. 31 м.
Продолжительность оригинала : 1 ч. 31 м.
Вид битрейта : Переменный
Битрейт : 199 Кбит/сек
Максимальный битрейт : 291 Кбит/сек
Каналы : 2 канала
Channel layout : L R
Частота : 48,0 КГц
Частота кадров : 46,875 кадров/сек (1024 SPF)
Метод сжатия : С потерями
Размер потока : 130 Мбайт (2%)
Размер потока оригинала : 130 Мбайт (2%)
Язык : English
Default : Нет
Alternate group : 1
Дата кодирования : UTC 2020-10-17 19:05:48
Дата пометки : UTC 2020-10-17 19:09:04
Fallback From : 7
tagc : public.main-program-content

Аудио #4
Идентификатор : 5
Формат : AC-3
Формат/Информация : Audio Coding 3
Коммерческое название : Dolby Digital
Идентификатор кодека : ac-3
Продолжительность : 1 ч. 31 м.
Вид битрейта : Постоянный
Битрейт : 640 Кбит/сек
Каналы : 6 каналов
Channel layout : L R C LFE Ls Rs
Частота : 48,0 КГц
Частота кадров : 31,250 кадров/сек (1536 SPF)
Метод сжатия : С потерями
Размер потока : 420 Мбайт (5%)
Язык : Russian
Service kind : Complete Main
Default : Inherited From: 2
Alternate group : 1
Дата кодирования : UTC 2020-10-17 19:05:48
Дата пометки : UTC 2020-10-17 19:10:10
Fallback To : 2
tagc : public.main-program-content

Аудио #5
Идентификатор : 6
Формат : AC-3
Формат/Информация : Audio Coding 3
Коммерческое название : Dolby Digital
Идентификатор кодека : ac-3
Продолжительность : 1 ч. 31 м.
Вид битрейта : Постоянный
Битрейт : 448 Кбит/сек
Каналы : 6 каналов
Channel layout : L R C LFE Ls Rs
Частота : 48,0 КГц
Частота кадров : 31,250 кадров/сек (1536 SPF)
Метод сжатия : С потерями
Размер потока : 294 Мбайт (4%)
Язык : Russian
Service kind : Complete Main
Default : Нет
Alternate group : 1
Дата кодирования : UTC 2020-10-17 19:05:48
Дата пометки : UTC 2020-10-17 19:10:10
Fallback To : 3
tagc : public.auxiliary-content

Аудио #6
Идентификатор : 7
Формат : AC-3
Формат/Информация : Audio Coding 3
Коммерческое название : Dolby Digital
Идентификатор кодека : ac-3
Продолжительность : 1 ч. 31 м.
Вид битрейта : Постоянный
Битрейт : 640 Кбит/сек
Каналы : 6 каналов
Channel layout : L R C LFE Ls Rs
Частота : 48,0 КГц
Частота кадров : 31,250 кадров/сек (1536 SPF)
Метод сжатия : С потерями
Размер потока : 420 Мбайт (5%)
Язык : English
Service kind : Complete Main
Default : Нет
Alternate group : 1
Дата кодирования : UTC 2020-10-17 19:05:48
Дата пометки : UTC 2020-10-17 19:09:04
Fallback To : 4
tagc : public.main-program-content

Текст #1
Идентификатор : 8
Формат : Timed Text
Режим смешивания : sbtl
Идентификатор кодека : tx3g
Продолжительность : 1 ч. 31 м.
Вид битрейта : Переменный
Битрейт : 7 бит/сек
Размер потока : 4,65 Кбайт (0%)
Язык : Russian
Default : Да
Forced : Нет
Alternate group : 2
Дата кодирования : UTC 2020-10-17 19:05:48
Дата пометки : UTC 2020-10-17 19:10:10
tagc : public.subtitles.forced-only

Текст #2
Идентификатор : 9
Формат : Timed Text
Режим смешивания : sbtl
Идентификатор кодека : tx3g
Продолжительность : 1 ч. 31 м.
Вид битрейта : Переменный
Битрейт : 5 бит/сек
Размер потока : 3,46 Кбайт (0%)
Язык : Russian
Default : Нет
Forced : Нет
Alternate group : 2
Дата кодирования : UTC 2020-10-17 19:05:48
Дата пометки : UTC 2020-10-17 19:10:10
tagc : public.subtitles.forced-only

Текст #3
Идентификатор : 10
Формат : Timed Text
Режим смешивания : sbtl
Идентификатор кодека : tx3g
Продолжительность : 1 ч. 31 м.
Вид битрейта : Переменный
Битрейт : 99 бит/сек
Размер потока : 66,8 Кбайт (0%)
Язык : Russian
Default : Нет
Forced : Нет
Alternate group : 2
Дата кодирования : UTC 2020-10-17 19:05:48
Дата пометки : UTC 2020-10-17 19:10:11
tagc : public.main-program-content

Текст #4
Идентификатор : 11
Формат : Timed Text
Режим смешивания : sbtl
Идентификатор кодека : tx3g
Продолжительность : 1 ч. 31 м.
Вид битрейта : Переменный
Битрейт : 95 бит/сек
Размер потока : 63,5 Кбайт (0%)
Язык : Ukrainian
Default : Нет
Forced : Нет
Alternate group : 2
Дата кодирования : UTC 2020-10-17 19:05:48
Дата пометки : UTC 2020-10-17 19:10:11
tagc : public.main-program-content

Текст #5
Идентификатор : 12
Формат : Timed Text
Режим смешивания : sbtl
Идентификатор кодека : tx3g
Продолжительность : 1 ч. 20 м.
Вид битрейта : Переменный
Битрейт : 72 бит/сек
Размер потока : 42,4 Кбайт (0%)
Язык : English
Default : Нет
Forced : Нет
Alternate group : 2
Дата кодирования : UTC 2020-10-17 19:05:48
Дата пометки : UTC 2020-10-17 19:10:11
tagc : public.main-program-content

Текст #6
Идентификатор : 13
Формат : Timed Text
Режим смешивания : sbtl
Идентификатор кодека : tx3g
Продолжительность : 1 ч. 20 м.
Вид битрейта : Переменный
Битрейт : 78 бит/сек
Размер потока : 46,1 Кбайт (0%)
Язык : English
Default : Нет
Forced : Нет
Alternate group : 2
Дата кодирования : UTC 2020-10-17 19:05:48
Дата пометки : UTC 2020-10-17 19:10:11
tagc : public.accessibility.transcribes-spoken-dialog


Name: Грейхаунд
Artist: Aaron Schneider
Media Kind: Movie
HD Video: 1080р
Genre: военный, боевик, драма
Release Date: 2020-07-10T12:00:00Z
Description: В центре сюжета морской офицер Эрнст Краузе, который в разгар Второй мировой войны становится новым капитаном эсминца ВМС США «Грейхаунд», несмотря на то, что до этого он не принимал участия в военных действиях.
Rating: mpaa|PG-13|300|
Studio: Playtone, Bron Studios, FilmNation Entertainment, Sycamore Pictures, Columbia Pictures, Sony Pictures
Cast: Tom Hanks, Stephen Graham, Rob Morgan, Josh Wiggins, Tom Brittney, Elisabeth Shue, Will Pullen, Manuel Garcia-Rulfo, Karl Glusman, Chet Hanks, Jimi Stanton, Matt Helm, Devin Druid, Craig Tate, Travis Quentin, Jeff Burkes, Matthew Zuk, Joseph Poliquin, Casey Bond, Michael Benz, Grayson Russell, Ian James Corlett, Maximilian Osinski, Dominic Keating, Dave Davis, Parker Wierling, Ian Pala, Travis Przybylski, Cade Burk, Jesse Gallegos, Alex Kramer, Lee Norris, Adam Aalderks, Keon Motakhaveri, Jake Ventimiglia, Michael Carollo, Caleb J. Thaggard, John Frederick, Jeff Adler, Brandon Holubar, Joel Newsom, Thomas Kretschmann, David Maldonado, Jeremy Madden, Jon Donahue
Director: Aaron Schneider
Producers: Gary Goetzman
Executive Producer: Aaron Ryder, David Coatsworth, Han Sanping, Michael Jackman, Steven Shareshian, Tom Rice, Aaron L. Gilbert, Ben Nearn, Jason Cloth, Milan Popelka, Richard McConnell, Alison Cohen, Anjay Nagpal, Alex Zhang
Screenwriters: Tom Hanks, C. S. Forester
Composer: Blake Neely

Скриншоты:


Все одноименные релизы в Клубе
Время раздачи: 24/7 (до появления первых 3-5 скачавших)

Релиз подготовлен для просмотра на Apple TV, iPad, iPhone, iPod Touch.
Для просмотра данного релиза на компьютере с ОС Windows рекомендуется использовать VLC media player
Greyhound.2020.WEB-DL.1080p.NNMClub.m4v.torrent
 Торрент: Платиновая раздача  Зарегистрирован
 
Скачать


Примагнититься
 Зарегистрирован:   17 Окт 2020 22:24:20
 Размер:   7,95 GB  (
 Рейтинг:   4,2 (Голосов: 15)
 Поблагодарили:   77
 Проверка:   Оформление проверено модератором 18 Окт 2020 12:02:14
Как cкачать  ·  Как раздать  ·  Правильно оформить  ·  Поднять ратио!  

_________________
«Всё против нас, только ветер навстречу…».
🍏Apple iMac 21.5 (mid 2011) / Intel Core i5 2.7 GHz / AMD Radeon HD 6770M 512 Mb / 12GB DDR3 / Apple Trackpad, Apple Keyboard / macOS High Sierra 10.13.6 (17G13033)
user3000
Стаж: 11 лет 7 мес.
Сообщений: 224
Ratio: 18,195
Поблагодарили: 4506
100%
nnm-club.gif
Никак очередные сказки о том, как США победили Гитлера?
madiop
Стаж: 8 лет 11 мес.
Сообщений: 245
Ratio: 10,664
Раздал: 27,98 TB
100%
Откуда: Vodevil
russia.gif
Увидев первый крин, подумал Спасти рядового Райена 2))
garri2z
Стаж: 4 года 5 мес.
Сообщений: 49
Ratio: 7,726
100%
чушь и враньё . плюс чудовищно не артистично включая Хэнкса. откуда такой рейтинг 4 из 10 не больше . подводная лодка 1985 - это действительно вещь - Прохнов рулит. снято 35 лет назад - вот им 10 из 10.......
japones
Стаж: 7 лет 3 мес.
Сообщений: 6
Ratio: 5,336
1.35%
Отличный фильм.
Показать сообщения:   
Начать новую тему   Ответить на тему    Торрент-трекер NNM-Club -> Аудио и Видео -> Зарубежное видео HD для устройств Apple Часовой пояс: GMT + 3
Страница 1 из 1