Классический форум-трекер
canvas not supported
Нас вместе: 4 130 206

Красотка в ударе (2020) WEB-DL [H.264/1080p-LQ]


Страницы:  1, 2  След. 
 
RSS
Начать новую тему   Ответить на тему    Торрент-трекер NNM-Club -> Горячие новинки -> Отечественные Новинки (HD*Rip/LQ, DVDRip)
Автор Сообщение
Катюша ®
Мне бы в небо!
Стаж: 8 лет 6 мес.
Сообщений: 645
Ratio: 229,667
Поблагодарили: 59684
100%
witch.png
Красотка в ударе (2020) WEB-DL [1080p]
Производство: Россия / OKKO Studios, Марс Медиа Энтертейнмент
Жанр: Комедия

Режиссер: Яна Гладких
Продюсер: Рубен Дишдишян, Лариса Блажко
Актеры: Юлия Александрова, Лариса Кокоева, Максим Блинов, Андрей Бурковский, Григорий Калинин, Павел Ворожцов, Яна Кошкина, Елена Шевченко, Янина Студилина, Таисия Вилкова

Описание:
Полина - обычная девушка: заурядная внешность, проблемы дома и на работе, встречи с одноклассниками по случаю... Но однажды она понимает, что проснулась настоящей красоткой, и теперь перед ней открыты все двери! Или ей это только кажется?



Возраст: 12+ (зрителям, достигшим 12 лет)
Дата российской премьеры: 13 августа 2020, «СППР»

Продолжительность: 01:36:20
Качество видео: WEB-DL 1080р
Перевод: Не требуется (русский)
Субтитры: Отсутствуют

Видео: H.264, 1920x1040, 5114 kbps
Аудио:AC3, 2 ch, 384 kbps

Общее
Уникальный идентификатор : 221934815879415298277739128175341897523 (0xA6F7173C133A28EAA44E4C486B308733)
Полное имя : Krasotka.v.Udare.2020.WEB-DL.1080p.ExKinoRay.mkv
Формат : Matroska
Версия формата : Version 4
Размер файла : 3,70 Гбайт
Продолжительность : 1 ч. 36 м.
Общий поток : 5500 Кбит/сек
Название фильма : Красотка в ударе 2020 from ExKinoRay
Дата кодирования : UTC 2020-09-30 23:02:30
Программа кодирования : mkvmerge v7.3.0 ('Nouages') 64bit built on Oct 22 2014 18:53:34
Библиотека кодирования : libebml v1.3.0 + libmatroska v1.4.1

Видео
Идентификатор : 1
Формат : AVC
Формат/Информация : Advanced Video Codec
Профиль формата : [email protected]
Настройки формата : CABAC / 4 Ref Frames
Параметр CABAC формата : Да
Параметр RefFrames формата : 4 кадра
Идентификатор кодека : V_MPEG4/ISO/AVC
Продолжительность : 1 ч. 36 м.
Битрейт : 5114 Кбит/сек
Ширина : 1920 пикселей
Высота : 1040 пикселей
Соотношение сторон : 1,85:1
Режим частоты кадров : Постоянный
Частота кадров : 25,000 кадров/сек
Цветовое пространство : YUV
Субдискретизация насыщенности : 4:2:0
Битовая глубина : 8 бит
Тип развёртки : Прогрессивная
Бит/(Пиксели*Кадры) : 0.102
Размер потока : 3,44 Гбайт (93%)
Язык : Russian
Default : Да
Forced : Нет

Аудио
Идентификатор : 2
Формат : AC-3
Формат/Информация : Audio Coding 3
Коммерческое название : Dolby Digital
Идентификатор кодека : A_AC3
Продолжительность : 1 ч. 36 м.
Вид битрейта : Постоянный
Битрейт : 384 Кбит/сек
Каналы : 2 канала
ChannelLayout : L R
Частота : 48,0 КГц
Частота кадров : 31,250 кадров/сек (1536 SPF)
Метод сжатия : С потерями
Размер потока : 265 Мбайт (7%)
Язык : Russian
ServiceKind/String : Complete Main
Default : Да
Forced : Нет


Все одноименные релизы в Клубе
Время раздачи: 24/7
[nn.iss.one]_Krasotka.v.Udare.2020.WEB-DL.1080p.mkv.torrent
 Торрент:   Зарегистрирован
 
Зарегистрируйтесь и скачайте торрент!
20,2 KB

Примагнититься
 Зарегистрирован:   01 Окт 2020 11:47:58
 Размер:   3,7 GB  (
 Рейтинг:   4,1 (Голосов: 102)
 Поблагодарили:   540
 Проверка:   Оформление проверено модератором 01 Окт 2020 18:23:49
Как cкачать  ·  Как раздать  ·  Правильно оформить  ·  Поднять ратио!  

_________________
Мальчики, у кого НДФЛ 15% - пишите!
vovka036
Предупреждений: 1
Предупреждений: 1 
Стаж: 10 лет 1 мес.
Сообщений: 1476
Ratio: 0,752
94.66%
russia.gif
Лёгкая комедия для женской аудитории и мужской уже во вторую очередь. Посмотреть можно, чтобы убить время, если нет других предложений. А их очень мало.
zoltar22
Стаж: 5 лет 10 мес.
Сообщений: 760
Ratio: 5,488
100%
russia.gif
нууу так себе фильмец на троечку

13:12 она написала ремонт компьютера 1500 т.р. (1500 тысяч рублей ) -- полтора миллиона ??
почему не 1500 руб?))
ogonek1
Стаж: 9 лет 6 мес.
Сообщений: 72
Ratio: 2,984
Раздал: 5,053 TB
Поблагодарили: 1
14.56%
ukraine.gif
zoltar22 писал(а): Перейти к сообщению

13:12 она написала ремонт компьютера 1500 т.р. (1500 тысяч рублей ) -- полтора миллиона ??
почему не 1500 руб?))


Главная проблема фильма... :D :D :D
Борисович666
Стаж: 6 лет 9 мес.
Сообщений: 126
Ratio: 12,963
100%
Это, в смысле, аналог "Насти" 93 года?
AKochergin
Стаж: 3 года 9 мес.
Сообщений: 27
Ratio: 2,066
13.91%
czechrepublic.gif
Борисович666 писал(а): Перейти к сообщению
Это, в смысле, аналог "Насти" 93 года?


Нет, это аналог вот этого - Красотка на всю голову / I Feel Pretty (2018) BDRip [MVO]
gesoff
Стаж: 8 лет 8 мес.
Сообщений: 11
Ratio: 1,59
9.14%
krevedko.png
опять эта противненькая Юлия Александрова
Scarface88
Стаж: 7 лет 3 мес.
Сообщений: 44
Ratio: 1,512
Поблагодарили: 226
100%
gesoff писал(а): Перейти к сообщению
опять эта противненькая Юлия Александрова

BadComedian разносит ее фильмы в дребодан, 100% скоро выйдет обзор на эту порнуху
manonfire
Стаж: 10 лет 4 мес.
Сообщений: 77
Ratio: 2,186
0%
До чего дошел ГИТИС, если выпускает таких актрис. Мне совершенно неубедительная игра Александровой еще после "Горько!" запомнилась, ну не тянет она вообще.
Goodwin_hunter1
Стаж: 6 лет 8 мес.
Сообщений: 98
Ratio: 4,678
100%
manonfire писал(а): Перейти к сообщению
До чего дошел ГИТИС, если выпускает таких актрис. Мне совершенно неубедительная игра Александровой еще после "Горько!" запомнилась, ну не тянет она вообще.


Особенно раздражаьб начала, когда в фильмах ноет и ноет, ноет и ноет. пискля
mnimm
Стаж: 7 лет
Сообщений: 183
Ratio: 0,697
0%
Scarface88 писал(а): Перейти к сообщению
gesoff писал(а): Перейти к сообщению
опять эта противненькая Юлия Александрова

BadComedian разносит ее фильмы в дребодан, 100% скоро выйдет обзор на эту порнуху


А чё у современной молодежи проблемсы с тем чтобы составить собственное мнение о фильме? Либо у вас приоритеты явно неверно расставлены.
Scarface88
Стаж: 7 лет 3 мес.
Сообщений: 44
Ratio: 1,512
Поблагодарили: 226
100%
mnimm писал(а): Перейти к сообщению
Scarface88 писал(а): Перейти к сообщению
gesoff писал(а): Перейти к сообщению
опять эта противненькая Юлия Александрова

BadComedian разносит ее фильмы в дребодан, 100% скоро выйдет обзор на эту порнуху


А чё у современной молодежи проблемсы с тем чтобы составить собственное мнение о фильме? Либо у вас приоритеты явно неверно расставлены.

Моложежи ухаха :смех:
kotshnir
Только чтение
Стаж: 7 лет
Сообщений: 177
Ratio: 2,065
0.15%
russia.gif
Scarface88 писал(а): Перейти к сообщению
gesoff писал(а): Перейти к сообщению
опять эта противненькая Юлия Александрова

BadComedian разносит ее фильмы в дребодан, 100% скоро выйдет обзор на эту порнуху

"Лааааадно! Прощаю!"
Scarface88
Стаж: 7 лет 3 мес.
Сообщений: 44
Ratio: 1,512
Поблагодарили: 226
100%
kotshnir писал(а): Перейти к сообщению
Scarface88 писал(а): Перейти к сообщению
gesoff писал(а): Перейти к сообщению
опять эта противненькая Юлия Александрова

BadComedian разносит ее фильмы в дребодан, 100% скоро выйдет обзор на эту порнуху

"Лааааадно! Прощаю!"

Monster Kill)))) В точку
bombat
Стаж: 10 лет 2 мес.
Сообщений: 311
Ratio: 7,729
100%
russia.gif
На 3 с плюсом.
Показать сообщения:   
Начать новую тему   Ответить на тему    Торрент-трекер NNM-Club -> Горячие новинки -> Отечественные Новинки (HD*Rip/LQ, DVDRip) Часовой пояс: GMT + 3
Страницы:  1, 2  След.
Страница 1 из 2